<?xml version="1.0" standalone="no"?>
<!DOCTYPE svg PUBLIC "-//W3C//DTD SVG 1.1//EN" "http://www.w3.org/Graphics/SVG/1.1/DTD/svg11.dtd" >
<svg xmlns="http://www.w3.org/2000/svg">
<metadata>Generated by IcoMoon</metadata>
<defs>
<font id="icomoon" horiz-adv-x="1024">
<font-face units-per-em="1024" ascent="960" descent="-64" />
<missing-glyph horiz-adv-x="1024" />
<glyph unicode="&#x20;" horiz-adv-x="512" d="" />
<glyph unicode="&#xe900;" glyph-name="download" d="M432 972.8h160c26.6 0 48-21.4 48-48v-336h175.4c35.6 0 53.4-43 28.2-68.2l-304.2-304.4c-15-15-39.6-15-54.6 0l-304.6 304.4c-25.2 25.2-7.4 68.2 28.2 68.2h175.601v336c0 26.6 21.4 48 48 48zM1024 220.8v-224.001c0-26.6-21.4-48-48-48h-928.001c-26.6 0-48 21.4-48 48v224.001c0 26.6 21.4 48 48 48h293.4l98-98c40.2-40.2 105.001-40.2 145.2 0l98 98h293.4c26.6 0 48-21.4 48-48zM776.001 44.8c0 22-18 40-40 40s-40-18-40-40c0-22 18-40 40-40s40 18 40 40zM904 44.8c0 22-18 40-40 40s-40-18-40-40c0-22 18-40 40-40s40 18 40 40z" />
<glyph unicode="&#xe901;" glyph-name="minimise" d="M511.948 908.306c-40.328 0-73.18-33.537-73.18-74.76 0-41.118 32.852-74.707 73.18-74.707h438.345c40.328 0 73.18 33.537 73.18 74.76 0 41.171-32.852 74.707-73.18 74.707zM12.268 501.971c-1.316-1.79-1.738-4.475-2.633-6.739-2.022-3.691-3.813-7.986-5.145-12.479l-0.121-0.473c-0.843-2.685-2.159-4.896-3.054-7.581-0.421-2.737 0-4.949 0-7.634 0-2.264-1.316-4.475-1.316-6.739 0-2.211 1.316-4.475 1.316-6.686 0.421-2.685-0.421-4.949 0-7.634 0.421-2.633 2.211-4.896 3.054-7.581 1.316-4.475 3.106-8.95 5.265-13.004 1.316-2.211 1.316-4.475 2.633-6.686l146.098-223.753c14.057-21.48 37.327-33.115 61.019-33.115 14.005 0 28.061 4.001 40.328 12.53 19.792 13.762 32.584 36.39 32.584 62.005 0 15.388-4.617 29.698-12.541 41.621l0.173-0.277-70.653 107.875h741.438c40.38 0 73.286 33.537 73.286 74.76 0 41.118-32.905 74.707-73.286 74.707h-741.017l70.653 107.823c22.375 34.484 13.162 80.551-20.164 103.4-11.376 7.796-25.44 12.45-40.589 12.45-25.351 0-47.658-13.031-60.588-32.76l-0.17-0.275-146.571-223.753zM950.293 162.287h-438.345c-40.328 0-73.18-33.537-73.18-74.707-0.002-0.173-0.003-0.377-0.003-0.581 0-40.523 32.702-73.408 73.154-73.705h438.373c40.328 0 73.18 33.537 73.18 74.76 0.001 0.157 0.002 0.343 0.002 0.528 0 40.523-32.701 73.408-73.154 73.705h-0.028z" />
<glyph unicode="&#xe902;" glyph-name="dotted" horiz-adv-x="473" d="M7.089 903.68c0 43.503 35.266 78.769 78.769 78.769s78.769-35.266 78.769-78.769v0c0-43.503-35.266-78.769-78.769-78.769s-78.769 35.266-78.769 78.769v0zM307.988 903.68c0 43.503 35.266 78.769 78.769 78.769s78.769-35.266 78.769-78.769v0c0-43.503-35.266-78.769-78.769-78.769s-78.769 35.266-78.769 78.769v0zM7.089 616.96c0 43.503 35.266 78.769 78.769 78.769s78.769-35.266 78.769-78.769v0c0-43.503-35.266-78.769-78.769-78.769s-78.769 35.266-78.769 78.769v0zM307.988 616.96c0 43.503 35.266 78.769 78.769 78.769s78.769-35.266 78.769-78.769v0c0-43.503-35.266-78.769-78.769-78.769s-78.769 35.266-78.769 78.769v0zM7.089 330.24c0 43.503 35.266 78.769 78.769 78.769s78.769-35.266 78.769-78.769v0c0-43.503-35.266-78.769-78.769-78.769s-78.769 35.266-78.769 78.769v0zM307.988 330.24c0 43.503 35.266 78.769 78.769 78.769s78.769-35.266 78.769-78.769v0c0-43.503-35.266-78.769-78.769-78.769s-78.769 35.266-78.769 78.769v0zM7.089 43.52c0 43.503 35.266 78.769 78.769 78.769s78.769-35.266 78.769-78.769v0c0-43.503-35.266-78.769-78.769-78.769s-78.769 35.266-78.769 78.769v0zM307.988 43.52c0 43.503 35.266 78.769 78.769 78.769s78.769-35.266 78.769-78.769v0c0-43.503-35.266-78.769-78.769-78.769s-78.769 35.266-78.769 78.769v0z" />
<glyph unicode="&#xe903;" glyph-name="settings" d="M892.305 410.88c2.048 16.384 3.584 33.024 3.584 49.92s-1.536 33.536-3.584 49.92l108.287 84.736c9.729 7.68 12.544 21.504 6.144 32.768l-102.4 177.408c-6.4 10.957-19.712 15.616-31.232 10.957l-127.488-51.405c-25.001 19.462-53.494 36.369-84.008 49.469l-2.521 0.963-19.201 135.679c-2.335 12.228-12.88 21.367-25.585 21.504h-204.815c-12.683-0.073-23.197-9.266-25.322-21.349l-0.024-0.155-19.201-135.679c-33.040-13.951-61.543-30.867-87.361-51.059l0.833 0.627-127.488 51.456c-2.708 1.065-5.845 1.682-9.126 1.682-9.381 0-17.583-5.045-22.041-12.571l-0.065-0.119-102.4-177.408c-2.157-3.673-3.432-8.089-3.432-12.803 0-8.051 3.716-15.234 9.526-19.927l0.048-0.038 108.033-84.736c-2.048-16.384-3.584-33.075-3.584-49.92 0-16.895 1.536-33.536 3.584-49.92l-108.033-84.736c-5.876-4.711-9.607-11.89-9.607-19.939 0-4.726 1.287-9.152 3.527-12.948l-0.065 0.119 102.4-177.459c4.459-7.65 12.624-12.709 21.97-12.709 3.333 0 6.518 0.644 9.432 1.813l-0.17-0.061 127.488 51.405c26.367-20.224 55.296-37.376 86.529-50.381l19.201-135.679c2.048-12.083 12.544-21.504 25.344-21.504h204.8c12.799 0 23.296 9.421 25.344 21.504l19.201 135.679c33.040 13.951 61.543 30.867 87.361 51.059l-0.833-0.627 127.488-51.456c2.715-1.071 5.86-1.691 9.151-1.691 9.364 0 17.554 5.028 22.016 12.531l0.065 0.118 102.4 177.459c2.157 3.673 3.432 8.089 3.432 12.803 0 8.051-3.716 15.234-9.526 19.927l-0.048 0.038zM511.891 281.6c-0.045 0-0.1 0-0.153 0-98.885 0-179.046 80.162-179.046 179.046 0 0.053 0 0.108 0 0.161v-0.008c0 99.072 80.127 179.2 179.2 179.2s179.2-80.127 179.2-179.2-80.127-179.2-179.2-179.2z" />
<glyph unicode="&#xe904;" glyph-name="play" d="M80.894 922.751c0 45.134 31.079 63.008 69.346 39.965l764.155-460.119c38.298-23.061 38.267-60.468 0-83.51l-764.155-460.119c-38.298-23.061-69.346-5.58-69.346 39.965v923.816z" />
<glyph unicode="&#xe905;" glyph-name="eye" d="M640.123 460.8c0-70.647-57.377-128.024-128.024-128.024s-128.024 57.377-128.024 128.024v1.066c13.676-13.868 32.432-22.404 53.344-22.404 41.202 0 74.68 33.5 74.68 74.68 0 29.659-17.475 55.477-42.462 67.427 13.228 4.695 27.525 7.255 42.462 7.255 70.627 0 128.024-57.397 128.024-128.024zM28.595 533.56c79.375 100.927 272.692 268.639 483.292 268.639 210.814 0 404.323-167.711 483.718-268.637 17.923-23.044 27.739-48.009 28.379-72.76-0.64-24.75-10.456-49.716-28.379-72.76-79.397-100.949-272.692-268.641-483.506-268.641s-404.109 167.689-483.506 268.637c-18.137 23.044-27.951 48.009-28.591 72.76 0.64 24.752 10.456 49.718 28.593 72.762zM512.099 247.426c117.783 0 213.374 95.592 213.374 213.374s-95.592 213.374-213.374 213.374-213.374-95.592-213.374-213.374c0.002-117.783 95.592-213.374 213.374-213.374z" />
<glyph unicode="&#xe906;" glyph-name="personify" d="M699.67 588.584c-8.53-25.591-17.062-51.183-34.121-68.244s-102.366-42.653-136.487 51.183c-8.53 17.062-34.121 17.062-34.121 0-34.121-102.366-119.427-68.244-136.487-51.183s-25.591 42.653-34.121 68.244c0 8.53-8.53 8.53-8.53 8.53 0 8.53 0 8.53 0 17.062s17.062 8.53 25.591 8.53c51.183 8.53 110.895 0 162.078-8.53 8.53 0 25.591 0 25.591 0 51.183 8.53 110.895 17.062 162.078 8.53 0 0 25.591 0 25.591-8.53s0-8.53 0-17.062c-8.53 8.53-17.062 0-17.062-8.53v0zM597.304-0.018l-51.183 255.914 51.183 76.774 102.366 51.183-102.366-383.871zM426.695-0.018l-102.366 383.871 102.366-51.183 51.183-76.774-51.183-255.914zM853.218 383.853l42.653 110.895c8.53 17.062-8.53 34.121-25.591 34.121h-119.427c17.062 42.653 25.591 85.304 25.591 127.957 85.304 17.062 136.487 42.653 136.487 59.713 0 25.591-59.713 51.183-145.019 68.244-17.062 68.244-59.713 127.957-85.304 162.078-17.062 25.591-51.183 34.121-85.304 17.062l-59.713-25.591c-17.062-8.53-42.653-8.53-59.713 0l-59.713 25.591c-25.591 17.062-59.713 8.53-85.304-17.062-25.591-34.121-68.244-102.366-85.304-162.078-85.304-17.062-145.019-42.653-145.019-68.244s51.183-51.183 136.487-59.713c0-42.653 0-85.304 25.591-127.957h-119.427c-17.062 0-34.121-17.062-25.591-34.121l51.183-110.895c-76.774-25.591-127.957-93.836-127.957-179.14v-162.078c0-51.183 42.653-93.836 102.366-93.836h733.62c59.713 0 102.366 42.653 102.366 93.836v162.078c0 76.774-51.183 145.019-127.957 179.14v0z" />
<glyph unicode="&#xe907;" glyph-name="filter" d="M974.281 972.793h-926.161c-25.549 0-44.711-19.162-44.711-51.099 0-12.775 6.387-25.549 12.775-31.937l370.465-370.465v-408.789c0-12.775 6.387-31.937 19.162-38.324l159.683-114.972c19.162-12.775 51.099-12.775 63.873 12.775 6.387 6.387 6.387 19.162 6.387 25.549v523.76l370.465 370.465c19.162 19.162 19.162 51.099 0 70.261-6.387 6.387-19.162 12.775-31.937 12.775z" />
<glyph unicode="&#xe908;" glyph-name="sort" d="M479.999 270.399h256c19.2 0 32 12.8 32 32v64c0 19.2-12.8 32-32 32h-256c-19.2 0-32-12.8-32-32v-64c0-19.2 12.8-32 32-32zM479.999 14.398h128c19.2 0 32 12.8 32 32v64c0 19.2-12.8 32-32 32h-128c-19.2 0-32-12.8-32-32v-64c0-19.2 12.8-32 32-32zM479.999 526.4h384.001c19.2 0 32 12.8 32 32v64c0 19.2-12.8 32-32 32h-384.001c-19.2 0-32-12.8-32-32v-64c0-19.2 12.8-32 32-32zM479.999 782.401h512.002c19.2 0 32 12.8 32 32v64c0 19.2-12.8 32-32 32h-512.002c-19.2 0-32-12.8-32-32v-64c0-19.2 12.8-32 32-32zM351.998 238.399h-96v640.002c0 19.2-12.8 32-32 32h-64c-19.2 0-32-12.8-32-32v-640.002h-96c-19.2 0-32-12.8-32-32 0-6.4 6.4-19.2 6.4-25.6l160.001-160.001c12.8-12.8 32-12.8 44.8 0l160.001 160.001c12.8 12.8 12.8 32 0 44.8 0 6.4-12.8 12.8-19.2 12.8z" />
<glyph unicode="&#xe909;" glyph-name="thumbnails" d="M419.265 972.778h-397.799c-11.837 0-21.444-9.607-21.444-21.444v-397.81c0-11.837 9.607-21.444 21.444-21.444h397.799c11.837 0 21.444 9.607 21.444 21.444v397.81c0 11.837-9.607 21.444-21.444 21.444zM1002.534 972.778h-397.81c-11.837 0-21.444-9.607-21.444-21.444v-397.81c0-11.837 9.607-21.444 21.444-21.444h397.81c11.837 0 21.444 9.607 21.444 21.444v397.81c0 11.837-9.597 21.444-21.444 21.444zM419.265 389.52h-397.799c-11.837 0-21.444-9.607-21.444-21.444v-397.81c0-11.837 9.607-21.444 21.444-21.444h397.799c11.837 0 21.444 9.607 21.444 21.444v397.81c0 11.826-9.607 21.444-21.444 21.444zM1002.534 389.52h-397.81c-11.837 0-21.444-9.607-21.444-21.444v-397.81c0-11.837 9.607-21.444 21.444-21.444h397.81c11.837 0 21.444 9.607 21.444 21.444v397.81c0 11.826-9.597 21.444-21.444 21.444z" />
<glyph unicode="&#xe90a;" glyph-name="arrow-right" d="M196.002 68.797l391.989 391.989-391.989 391.989 119.997 119.997 511.984-511.984-511.984-511.984z" />
<glyph unicode="&#xe90b;" glyph-name="arrow-up" d="M119.998 144.803l-119.997 119.997 511.985 511.985 511.985-511.985-119.997-119.997-391.988 391.988z" />
<glyph unicode="&#xe90c;" glyph-name="arrow-left" d="M828.002 68.816l-119.998-119.998-511.992 511.992 511.992 511.992 119.998-119.998-391.994-391.994z" />
<glyph unicode="&#xe90d;" glyph-name="arrow-down" d="M120.009 776.784l391.977-391.977 391.977 391.977 119.993-119.993-511.97-511.97-511.97 511.97z" />
<glyph unicode="&#xe90e;" glyph-name="pin" d="M512 972.8c-209.408 0-379.328-160.513-379.328-358.4 0-268.8 379.328-665.6 379.328-665.6s379.328 396.8 379.328 665.6c0 197.888-169.92 358.4-379.328 358.4zM512 486.4c-74.753 0-135.488 57.344-135.488 128s60.736 128 135.488 128c74.753 0 135.488-57.344 135.488-128s-60.736-128-135.488-128z" />
<glyph unicode="&#xe90f;" glyph-name="remove" d="M511.909 972.787c-282.713 0-511.895-229.255-511.895-512.005 0-282.713 229.182-511.969 511.895-511.969 282.86 0 512.079 229.292 512.079 511.969 0 282.75-229.219 512.005-512.079 512.005zM732.046 322.153l-81.545-81.435c0 0-128.998 138.409-138.629 138.409-9.484 0-138.519-138.409-138.519-138.409l-81.581 81.435c0 0 138.555 127.131 138.555 138.446 0 11.498-138.555 138.665-138.555 138.665l81.581 81.618c0 0 130.097-138.482 138.519-138.482 8.495 0 138.629 138.482 138.629 138.482l81.545-81.618c0 0-138.592-128.998-138.592-138.665 0-9.191 138.592-138.446 138.592-138.446z" />
<glyph unicode="&#xe910;" glyph-name="edit" d="M690.403 310.573l68.189 76.712c17.047 17.047 34.093 0 34.093-17.047v-289.799c0-51.141-34.093-85.235-85.235-85.235h-622.216c-51.141 0-85.235 42.617-85.235 85.235v647.786c0 51.141 34.093 85.235 85.235 85.235h511.41c17.047 0 25.57-25.57 17.047-34.093l-68.189-76.712c0 0-8.523-8.523-17.047-8.523h-409.128v-588.121h571.074v187.517c-8.523 8.523-8.523 17.047 0 17.047v0zM1005.773 719.701l-59.665-68.189c-8.523-8.523-17.047-8.523-25.57 0 0 0 0 0 0 0l-161.946 161.946c-8.523 8.523-8.523 17.047 0 25.57l59.665 68.189c25.57 25.57 68.189 25.57 93.759 0 0 0 0 0 0 0l85.235-85.235c34.093-25.57 34.093-68.189 8.523-102.282zM715.974 779.366l161.946-161.946c8.523-8.523 8.523-17.047 0-25.57l-392.081-400.604-161.946-17.047c-17.047 0-34.093 8.523-34.093 34.093 0 0 0 8.523 0 8.523l17.047 170.471 392.081 400.604c0 0 8.523 0 17.047-8.523 0 0 0 0 0 0v0z" />
<glyph unicode="&#xe911;" glyph-name="star-o" d="M961.455 629.817l-273.492 42.594-122.239 264.768c-21.902 47.194-85.361 47.795-107.45 0l-122.239-264.768-273.492-42.594c-49.045-7.599-68.701-72.191-33.133-109.187l197.865-205.974-46.798-290.964c-8.424-52.594 43.43-91.988 86.858-67.392l244.664 137.383 244.664-137.383c43.43-24.397 95.283 14.798 86.858 67.392l-46.798 290.964 197.865 205.974c35.568 36.996 15.912 101.588-33.133 109.187zM700.318 348.251l44.365-276.766-232.684 130.584-232.684-130.584 44.365 276.766-188.318 195.976 260.202 40.395 116.435 251.969 116.435-251.969 260.202-40.395-188.318-195.976z" />
<glyph unicode="&#xe912;" glyph-name="export" d="M896.001 460.799h-320v192h320v-192zM896.001 140.799h-320v192h320v-192zM448 460.799h-320v192h320v-192zM448 140.799h-320v192h320v-192zM928 908.8h-832.001c-51.2 0-96-44.8-96-96v-704.001c0-51.2 44.8-96 96-96h832.001c51.2 0 96 44.8 96 96v704.001c0 51.2-44.8 96-96 96z" />
<glyph unicode="&#xe913;" glyph-name="calendar" d="M512.001 409.602h255.994v-255.994h-255.994v255.994zM870.391 870.388h-51.198v102.398h-102.398v-102.398h-409.588v102.398h-102.398v-102.398h-51.198c-56.574 0-101.884-45.822-101.884-102.398l-0.514-716.777c0-56.574 45.822-102.398 102.398-102.398h716.779c56.574 0 102.398 45.822 102.398 102.398v716.779c-0.002 56.574-45.825 102.395-102.398 102.395zM870.391 51.214h-716.779v563.183h716.779v-563.183z" />
<glyph unicode="&#xe914;" glyph-name="trash" d="M714.239 563.2c0 15.359-15.359 30.719-30.719 30.719s-30.719-15.359-30.719-30.719v-450.56c0-15.359 15.359-30.719 30.719-30.719s30.719 15.359 30.719 30.719v450.56zM540.16 563.2c0 15.359-15.359 30.719-30.719 30.719s-30.719-15.359-30.719-30.719v-450.56c0-15.359 15.359-30.719 30.719-30.719s30.719 15.359 30.719 30.719v450.56zM360.962 563.2c0 15.359-15.359 30.719-30.719 30.719s-30.719-15.359-30.719-30.719v-450.56c0-15.359 15.359-30.719 30.719-30.719s30.719 15.359 30.719 30.719v450.56zM862.72 696.319v-650.24c0-51.201-40.96-97.28-87.039-97.28h-527.359c-46.081 0-87.039 40.96-87.039 97.28v650.24c0 15.359 10.241 25.598 20.48 25.598h660.478c10.241 0 20.48-10.241 20.48-25.598v0zM99.842 808.959v56.322c0 25.598 20.48 46.081 46.081 46.081h204.799l15.359 35.84c5.12 15.359 20.48 25.598 40.96 25.598h209.919c15.359 0 30.719-10.241 40.96-25.598l15.359-35.84h204.799c25.598 0 46.081-20.48 46.081-46.081v-56.322c0-15.359-10.241-25.598-20.48-25.598h-773.116c-20.48 5.12-30.719 15.359-30.719 25.598v0z" />
<glyph unicode="&#xe915;" glyph-name="exclamation-solid" d="M1008 460.8c0-273.994-222.086-496-496-496s-496 222.006-496 496c0 273.834 222.086 496 496 496s496-222.166 496-496zM512 360.8c-50.81 0-92-41.19-92-92s41.19-92 92-92c50.81 0 92 41.19 92 92s-41.19 92-92 92zM424.654 691.492l14.836-272c0.694-12.728 11.218-22.692 23.964-22.692h97.092c12.746 0 23.27 9.964 23.964 22.692l14.836 272c0.75 13.748-10.196 25.308-23.964 25.308h-126.766c-13.768 0-24.712-11.56-23.962-25.308z" />
<glyph unicode="&#xe916;" glyph-name="exclamation-triangle" d="M434.265 582.008c-0.732 12.434 9.143 22.856 21.21 22.856h112.637c12.251 0 21.942-10.422 21.21-22.856l-13.166-244.838c-0.549-11.519-10.057-20.479-21.393-20.479h-86.306c-11.337 0-20.662 8.96-21.21 20.479l-12.982 244.838zM593.711 201.493c0-45.713-36.571-82.832-81.734-82.832s-81.734 37.119-81.734 82.832 36.571 82.832 81.734 82.832c45.164 0 81.734-36.936 81.734-82.832zM585.847 878.409c-32.73 57.598-115.014 57.598-147.744 0l-426.592-748.775c-32.73-57.416 8.228-129.641 73.872-129.641h853.184c65.461 0 106.785 72.044 73.872 129.641l-426.592 748.775z" />
<glyph unicode="&#xe917;" glyph-name="checkmark" d="M511.993 972.781c-282.775 0-511.989-229.213-511.989-511.989s229.213-511.989 511.989-511.989 511.989 229.213 511.989 511.989-229.213 511.989-511.989 511.989zM797.84 606.237l-373.594-373.555c-9.373-9.334-24.536-9.334-33.909 0l-7.522 7.522-0.039-0.039-205.544 207.001c-9.373 9.373-9.373 24.575 0 33.949l50.963 50.923c9.373 9.373 24.575 9.373 33.949 0l145.287-146.35 305.46 305.46c9.373 9.373 24.575 9.373 33.949 0l50.963-50.963c9.413-9.334 9.413-24.536 0.039-33.949z" />
<glyph unicode="&#xe918;" glyph-name="circle-with-cross" d="M512 972.79c-282.752 0-511.99-229.238-511.99-511.99s229.238-511.99 511.99-511.99 511.99 229.238 511.99 511.99c0 282.752-229.238 511.99-511.99 511.99zM803.896 274.23l-105.384-105.384-186.509 186.57-186.57-186.509-105.384 105.384 186.631 186.509-186.57 186.57 105.384 105.323 186.509-186.509 186.57 186.57 105.384-105.384-186.631-186.57 186.57-186.57z" />
<glyph unicode="&#xe919;" glyph-name="chat" d="M1010.099 69.271c-23.167 23.167-55.602 41.702-64.869 120.47 120.47 115.837 92.67 278.009-64.869 366.044v-9.267c0-217.774-231.674-379.946-505.049-375.312 69.502-55.602 166.805-88.037 278.009-88.037 60.235 0 120.47 9.267 171.439 27.8 50.968-37.068 115.837-64.869 185.34-69.502 4.633 0 13.901 4.633 13.901 9.267-4.633 9.267-9.267 13.901-13.901 18.535v0zM393.846 277.777c-64.869 0-129.737 13.901-185.34 32.434-55.602-46.335-125.104-74.135-194.606-78.769-4.633 0-13.901 4.633-13.901 9.267 0 9.267 4.633 13.901 9.267 18.535 27.8 27.8 60.235 46.335 69.502 139.005-50.968 50.968-78.769 111.204-78.769 180.706 0 166.805 176.072 301.176 393.846 301.176s393.846-134.371 393.846-301.176c0-166.805-176.072-301.176-393.846-301.176v0z" />
<glyph unicode="&#xe91a;" glyph-name="mail" d="M921.601 870.4h-819.2c-56.32 0-102.4-46.080-102.4-102.4 0 0 0 0 0 0v-614.4c0-56.32 46.080-102.4 102.4-102.4h819.2c56.32 0 102.4 46.080 102.4 102.4v614.4c0 56.32-46.080 102.4-102.4 102.4zM921.601 665.6l-409.6-256-409.6 256v102.4l409.6-256 409.6 256v-102.4z" />
<glyph unicode="&#xe91b;" glyph-name="user" d="M256 716.8c0 141.385 114.615 256 256 256s256-114.615 256-256v0-102.4c0-141.385-114.615-256-256-256s-256 114.615-256 256v0 102.4zM0 118.784c146.431 86.26 322.601 137.217 510.673 137.217 0.466 0 0.933 0 1.399-0.001h-0.072c186.368 0 361.472-49.664 512-137.216v-169.984h-1023.999v169.984z" />
<glyph unicode="&#xe91c;" glyph-name="bookmark" d="M102.418 870.389c0 56.318 46.078 102.396 102.396 102.396h614.373c56.552 0 102.396-45.844 102.396-102.396v0-921.56l-409.582 204.791-409.582-204.791v921.56z" />
<glyph unicode="&#xe91d;" glyph-name="list" d="M0.023 802.118h113.773v-113.773h-113.773v113.773zM227.568 802.118h796.408v-113.773h-796.408v113.773zM0.023 517.686h113.773v-113.773h-113.773v113.773zM227.568 517.686h796.408v-113.773h-796.408v113.773zM0.023 233.255h113.773v-113.773h-113.773v113.773zM227.568 233.255h796.408v-113.773h-796.408v113.773z" />
<glyph unicode="&#xe91e;" glyph-name="view-button" d="M512 809.891c232.96 0 431.477-144.756 512-349.091-80.524-204.335-279.273-349.091-512-349.091s-431.477 144.756-512 349.091c80.524 204.335 279.273 349.091 512 349.091zM512 228.072c128.466 0 232.728 104.262 232.728 232.728s-104.262 232.728-232.728 232.728-232.728-104.262-232.728-232.728 104.262-232.728 232.728-232.728zM512 600.436c77.033 0 139.636-62.603 139.636-139.636s-62.603-139.636-139.636-139.636-139.636 62.603-139.636 139.636 62.603 139.636 139.636 139.636z" />
<glyph unicode="&#xe91f;" glyph-name="search" d="M689.637 370.724c44.68 61.16 71.487 137.843 71.487 220.788 0 0.245 0 0.49-0.001 0.735v-0.037c0 210.178-170.382 380.561-380.561 380.561s-380.561-170.382-380.561-380.561c0-210.178 170.382-380.561 380.561-380.561v0c0.181 0 0.396 0 0.611 0 83.255 0 160.217 26.941 222.644 72.582l-1.067-0.744 334.014-334.659 87.235 87.178zM380.563 328.746c-145.507 0-263.465 117.957-263.465 263.465s117.957 263.465 263.465 263.465v0c145.507 0 263.465-117.957 263.465-263.465s-117.957-263.465-263.465-263.465v0z" />
<glyph unicode="&#xe920;" glyph-name="cross" d="M0 828.067l144.733 144.733 879.266-879.266-144.733-144.733zM1024 828.067l-144.733 144.733-879.266-879.266 144.733-144.733z" />
<glyph unicode="&#xe921;" glyph-name="info-circle" d="M460.8 614.4v102.4h102.4v-102.4h-102.4zM460.8 204.8v307.2h102.4v-307.2h-102.4zM512 972.8c-282.88 0-512-229.12-512-512s229.12-512 512-512c282.88 0 512 229.12 512 512s-229.12 512-512 512z" />
<glyph unicode="&#xe922;" glyph-name="plus-circle" d="M784.026 420.813c-0.029-13.268-10.792-24.013-24.064-24.013 0 0 0 0 0 0h-183.962v-184.013c-0.029-13.25-10.763-23.984-24.010-24.013h-111.977c-13.268 0.029-24.013 10.792-24.013 24.064 0 0 0 0 0 0v0 183.962h-184.013c-13.228 0.058-23.933 10.781-23.962 24.010v111.977c0.029 13.232 10.733 23.955 23.956 24.013h184.019v184.013c0.029 13.25 10.763 23.984 24.010 24.013h111.977c13.268-0.029 24.013-10.792 24.013-24.064 0 0 0 0 0 0v0-183.962h184.013c13.228-0.058 23.933-10.781 23.962-24.010v-0.003zM496.026 972.8c-0.031 0-0.067 0-0.102 0-273.891 0-495.923-222.032-495.923-495.923 0-0.036 0-0.072 0-0.109v0.006c0-0.015 0-0.033 0-0.051 0-273.891 222.032-495.923 495.923-495.923 0.036 0 0.072 0 0.108 0h-0.005c0.015 0 0.033 0 0.051 0 273.891 0 495.923 222.032 495.923 495.923 0 0.036 0 0.072 0 0.108v-0.005c0 0.015 0 0.033 0 0.051 0 273.891-222.032 495.923-495.923 495.923-0.036 0-0.072 0-0.108 0h0.005z" />
<glyph unicode="&#xe923;" glyph-name="star" d="M457.067 922.397l-124.985-256.552-279.637-41.273c-50.147-7.363-70.244-69.951-33.878-105.798l202.311-199.583-47.85-281.935c-8.613-50.961 44.405-89.134 88.81-65.301l250.162 133.12 250.162-133.12c44.405-23.64 97.423 14.339 88.81 65.301l-47.85 281.935 202.311 199.583c36.366 35.848 16.269 98.435-33.878 105.798l-279.637 41.273-124.985 256.552c-22.394 45.73-87.279 46.311-109.864 0z" />
<glyph unicode="&#xe924;" glyph-name="long-arrow-right" d="M435.38 881.023l50.737 49.333c21.483 20.889 56.222 20.889 77.477 0l444.294-431.778c21.483-20.889 21.483-54.667 0-75.333l-444.294-432c-21.483-20.889-56.222-20.889-77.477 0l-50.737 49.333c-21.712 21.111-21.254 55.556 0.914 76.222l275.398 255.111h-656.842c-30.397 0-54.851 23.778-54.851 53.333v71.111c0 29.556 24.454 53.333 54.851 53.333h656.842l-275.398 255.111c-22.398 20.667-22.854 55.111-0.914 76.222z" />
<glyph unicode="&#xe925;" glyph-name="chart-pie" d="M522.235 908.493v-418.053h412.891c12.512 0 22.304 10.649 21.76 23.317-11.605 224.724-189.491 405.017-411.622 416.767-12.512 0.551-23.029-9.363-23.029-22.032zM1002.219 402.313c12.512 0 22.304-10.649 21.76-23.317-5.078-97.674-42.068-193.879-110.975-271.358-8.341-9.363-22.848-9.914-31.733-0.918l-291.943 295.593h412.891zM727.139 136.096c8.703-8.813 8.523-23.501-0.725-31.762-77.247-70.502-179.518-113.28-291.581-113.28-239.72 0.184-435.195 198.653-434.833 441.553 0.362 235.189 182.782 427.049 412.166 439.166 12.512 0.734 23.029-9.363 23.029-22.032v-418.053l291.943-295.593z" />
<glyph unicode="&#xe926;" glyph-name="language" horiz-adv-x="1408" d="M668.799 108.797h-616.005c-29.161 0-52.801 23.639-52.801 52.801v598.405c0 29.161 23.639 52.801 52.801 52.801h616.005v-704.006zM403.31 268.566c3.299-11.245 13.615-18.968 25.333-18.968h50.299c18.084 0 30.815 17.772 24.996 34.894l-126.399 371.922c-3.639 10.706-13.689 17.905-24.996 17.905h-71.477c-11.307 0-21.358-7.201-24.996-17.905l-126.402-371.922c-5.819-17.123 6.912-34.894 24.996-34.894h50.171c11.778 0 22.131 7.801 25.378 19.125l20.060 69.976h132.466l20.573-70.132zM317.397 577.493c0 0 9.505-46.333 17.226-73.062l23.76-82.57h-83.755l24.354 82.57c7.722 26.73 17.226 73.062 17.226 73.062h1.188zM1355.205 108.797h-616.005v704.006h616.005c29.161 0 52.801-23.639 52.801-52.801v-598.405c0-29.161-23.639-52.801-52.801-52.801zM1276.004 610.401h-140.801v35.2c0 14.58-11.821 26.4-26.4 26.4h-35.2c-14.58 0-26.4-11.821-26.4-26.4v-35.2h-140.801c-14.58 0-26.4-11.821-26.4-26.4v-35.2c0-14.58 11.821-26.4 26.4-26.4h251.034c-13.779-31.459-36.341-63.739-66.052-95.055-14.432 15.176-27.273 30.603-38.203 46.053-8.005 11.318-23.288 14.685-35.189 7.58l-30.312-18.095c-13.102-7.822-16.925-25.127-8.217-37.658 13.343-19.203 28.816-38.14 46.165-56.599-17.868-13.698-37.051-26.938-57.427-39.52-12.146-7.502-16.237-23.222-9.157-35.618l17.471-30.572c7.397-12.943 24.058-17.218 36.754-9.407 28.010 17.227 54.056 35.585 77.975 54.76 24.017-19.274 50.086-37.625 77.872-54.738 12.704-7.824 29.377-3.56 36.778 9.395l17.478 30.587c7.069 12.371 3.014 28.073-9.097 35.577-19.769 12.236-38.903 25.468-57.332 39.642 46.254 49.336 78.69 101.838 93.97 153.671h25.094c14.58 0 26.4 11.821 26.4 26.4v35.2c0 14.575-11.821 26.396-26.4 26.396z" />
<glyph unicode="&#xe927;" glyph-name="list-alt" d="M928 12.8h-832c-53.020 0-96 42.98-96 96v704.001c0 53.020 42.98 96 96 96h832c53.020 0 96-42.98 96-96v-704.001c0-53.020-42.98-96-96-96zM255.999 732.8c-44.182 0-80-35.818-80-80s35.818-80 80-80c44.182 0 80 35.818 80 80s-35.818 80-80 80zM255.999 540.8c-44.182 0-80-35.818-80-80s35.818-80 80-80c44.182 0 80 35.818 80 80s-35.818 80-80 80zM255.999 348.8c-44.182 0-80-35.818-80-80s35.818-80 80-80c44.182 0 80 35.818 80 80s-35.818 80-80 80zM832 620.8v64c0 13.254-10.746 24-24 24h-400c-13.254 0-24-10.746-24-24v-64c0-13.254 10.746-24 24-24h400c13.254 0 24 10.746 24 24zM832 428.8v64c0 13.254-10.746 24-24 24h-400c-13.254 0-24-10.746-24-24v-64c0-13.254 10.746-24 24-24h400c13.254 0 24 10.746 24 24zM832 236.8v64c0 13.254-10.746 24-24 24h-400c-13.254 0-24-10.746-24-24v-64c0-13.254 10.746-24 24-24h400c13.254 0 24 10.746 24 24z" />
<glyph unicode="&#xe928;" glyph-name="folder-open" d="M1018.123 395.832l-128.754-223.479c-20.389-35.392-57.811-57.154-98.277-57.154h-711.046c-32.929 0-53.447 36.167-36.855 64.967l128.754 223.479c20.39 35.392 57.812 57.154 98.279 57.154h711.046c32.929 0 53.447-36.167 36.853-64.967zM270.223 518.4h583.11v86.4c0 47.718-38.204 86.4-85.333 86.4h-284.444l-113.778 115.2h-284.444c-47.129 0-85.333-38.682-85.333-86.4v-500.482l122.803 213.152c30.466 52.88 86.955 85.73 147.418 85.73z" />
<glyph unicode="&#xe929;" glyph-name="align-left" d="M658.286 931.911v-88.889c0-19.638-16.372-35.556-36.571-35.556h-585.143c-20.199 0-36.571 15.918-36.571 35.556v88.889c0 19.638 16.372 35.556 36.571 35.556h585.143c20.199 0 36.571-15.918 36.571-35.556zM0 647.467v-88.889c0-19.638 16.372-35.556 36.571-35.556h950.857c20.199 0 36.571 15.918 36.571 35.556v88.889c0 19.638-16.372 35.556-36.571 35.556h-950.857c-20.199 0-36.571-15.918-36.571-35.556zM36.571-45.867h950.857c20.199 0 36.571 15.918 36.571 35.556v88.889c0 19.638-16.372 35.556-36.571 35.556h-950.857c-20.199 0-36.571-15.918-36.571-35.556v-88.889c0-19.638 16.372-35.556 36.571-35.556zM621.714 398.577h-585.143c-20.199 0-36.571-15.918-36.571-35.556v-88.889c0-19.638 16.372-35.556 36.571-35.556h585.143c20.199 0 36.571 15.918 36.571 35.556v88.889c0 19.638-16.372 35.556-36.571 35.556z" />
<glyph unicode="&#xe92a;" glyph-name="calendar-check" d="M948.114 652.8h-872.229c-13.633 0-24.686 10.746-24.686 24v72c0 53.020 44.208 96 98.743 96h98.743v104c0 13.254 11.053 24 24.686 24h82.286c13.633 0 24.686-10.746 24.686-24v-104h263.314v104c0 13.254 11.053 24 24.686 24h82.286c13.633 0 24.686-10.746 24.686-24v-104h98.743c54.535 0 98.743-42.98 98.743-96v-72c0-13.254-11.053-24-24.686-24zM75.886 588.8h872.229c13.633 0 24.686-10.746 24.686-24v-520c0-53.020-44.208-96-98.743-96h-724.114c-54.535 0-98.743 42.98-98.743 96v520c0 13.254 11.053 24 24.686 24zM761.523 396.906l-57.948 56.796c-9.601 9.41-25.231 9.472-34.91 0.136l-218.133-210.368-94.587 92.704c-9.601 9.41-25.233 9.472-34.912 0.136l-58.417-56.34c-9.679-9.334-9.743-24.53-0.14-33.94l169.922-166.538c9.601-9.41 25.231-9.472 34.91-0.136l294.075 283.61c9.679 9.334 9.743 24.53 0.14 33.94z" />
<glyph unicode="&#xe92b;" glyph-name="calendar-empty" d="M75.887 588.8h872.229c13.577 0 24.686-10.8 24.686-24v-520c0-53-44.229-96-98.743-96h-724.114c-54.514 0-98.743 43-98.743 96v520c0 13.2 11.109 24 24.686 24zM972.801 676.8v72c0 53-44.229 96-98.743 96h-98.743v104c0 13.2-11.109 24-24.686 24h-82.286c-13.577 0-24.686-10.8-24.686-24v-104h-263.314v104c0 13.2-11.109 24-24.686 24h-82.286c-13.577 0-24.686-10.8-24.686-24v-104h-98.743c-54.514 0-98.743-43-98.743-96v-72c0-13.2 11.109-24 24.686-24h872.229c13.577 0 24.686 10.8 24.686 24z" />
<glyph unicode="&#xe92c;" glyph-name="clock" d="M512 972.8c-282.839 0-512-229.162-512-512s229.162-512 512-512c282.839 0 512 229.162 512 512s-229.162 512-512 512zM629.884 250.013l-182.090 132.336c-6.4 4.748-10.116 12.18-10.116 20.025v347.458c0 13.626 11.149 24.775 24.775 24.775h99.097c13.626 0 24.775-11.149 24.775-24.775v-284.284l131.097-95.381c11.149-8.052 13.419-23.535 5.368-34.684l-58.219-80.103c-8.052-10.942-23.535-13.419-34.684-5.368z" />
<glyph unicode="&#xe92d;" glyph-name="money-bill-alt" horiz-adv-x="1434" d="M1433.606 765.443v-609.286c0-29.691-24.070-53.76-53.76-53.76h-1326.092c-29.691 0-53.76 24.070-53.76 53.76v609.286c0 29.691 24.070 53.76 53.76 53.76h1326.092c29.691 0 53.76-24.070 53.76-53.76zM215.035 174.077c0 79.176-64.185 143.361-143.361 143.361v-143.361h143.361zM215.035 747.523h-143.361v-143.361c79.176 0 143.361 64.185 143.361 143.361zM896.001 460.8c0 118.769-80.23 215.042-179.202 215.042s-179.202-96.273-179.202-215.042c0-118.746 80.224-215.042 179.202-215.042 98.935 0 179.202 96.251 179.202 215.042zM1361.925 317.439c-79.176 0-143.361-64.185-143.361-143.361h143.361v143.361zM1361.925 747.523h-143.361c0-79.176 64.185-143.361 143.361-143.361v143.361zM621.74 363.299c0 16.748 8.774 25.921 25.924 25.921h33.894v89.328c0 11.567 1.195 23.528 1.195 23.528h-0.798c0 0-3.984-5.981-6.38-8.375-9.97-9.572-23.529-9.97-35.093 2.393l-12.361 13.958c-11.966 11.965-11.163 25.125 1.195 36.689l48.654 44.664c9.966 9.174 18.741 12.761 32.302 12.761h27.115c17.15 0 26.318-8.773 26.318-25.921v-189.021h34.695c17.147 0 25.921-9.17 25.921-25.921v-19.938c0-16.748-8.774-25.921-25.921-25.921h-150.739c-17.15 0-25.924 9.174-25.924 25.921v19.936z" />
<glyph unicode="&#xe92e;" glyph-name="phone" d="M986.792 923.57l-208 47.994c-22.628 5.222-45.758-6.504-54.912-27.862l-96-223.994c-8.425-19.657-2.827-42.516 13.724-56.058l121.234-99.192c-71.946-153.35-197.876-281.016-354.498-354.496l-99.192 121.232c-13.543 16.552-36.401 22.148-56.058 13.724l-223.994-96c-21.352-9.15-33.086-32.278-27.862-54.912l47.994-208c4.988-21.614 24.266-37.206 46.77-37.206 512.174 0 928 415.064 928 928 0 22.352-15.428 41.746-37.206 46.77z" />
<glyph unicode="&#xe92f;" glyph-name="university" d="M1024 733.866v-34.134c0-9.426-7.641-17.067-17.067-17.067h-51.2v-25.6c0-14.138-11.463-25.6-25.6-25.6h-836.265c-14.138 0-25.6 11.463-25.6 25.6v25.6h-51.2c-9.426 0-17.067 7.641-17.067 17.067v34.134c0 6.905 4.161 13.129 10.541 15.77l494.933 187.733c4.178 1.731 8.874 1.731 13.052 0l494.933-187.733c6.38-2.641 10.541-8.865 10.541-15.77zM972.801 85.333h-921.599c-28.277 0-51.2-22.923-51.2-51.2v-34.134c0-9.426 7.641-17.067 17.067-17.067h989.865c9.426 0 17.067 7.641 17.067 17.067v34.134c0 28.277-22.923 51.2-51.2 51.2zM170.668 597.333v-409.599h-76.799c-14.138 0-25.6-11.463-25.6-25.6v-42.667h887.466v42.667c0 14.138-11.463 25.6-25.6 25.6h-76.799v409.599h-136.533v-409.599h-136.533v409.599h-136.533v-409.599h-136.533v409.599h-136.533z" />
<glyph unicode="&#xe930;" glyph-name="info-circle-alt" d="M512 921.371c-254.349 0-460.571-206.297-460.571-460.571 0-254.423 206.223-460.571 460.571-460.571s460.571 206.148 460.571 460.571c0 254.274-206.223 460.571-460.571 460.571zM512 717.086c43.078 0 78-34.922 78-78s-34.922-78-78-78c-43.078 0-78 34.922-78 78s34.922 78 78 78zM616 245.371c0-12.307-9.978-22.286-22.286-22.286h-163.429c-12.307 0-22.286 9.978-22.286 22.286v44.571c0 12.307 9.978 22.286 22.286 22.286h22.286v118.857h-22.286c-12.307 0-22.286 9.978-22.286 22.286v44.571c0 12.307 9.978 22.286 22.286 22.286h118.857c12.307 0 22.286-9.978 22.286-22.286v-185.714h22.286c12.307 0 22.286-9.978 22.286-22.286v-44.571z" />
<glyph unicode="&#xe931;" glyph-name="user-plus" horiz-adv-x="1229" d="M430.074 890.887c148.457 0 268.805-120.348 268.805-268.805s-120.348-268.805-268.805-268.805c-148.457 0-268.805 120.348-268.805 268.805s120.348 268.805 268.805 268.805zM737.996 330.059l-119.808 29.953c-125.873-90.538-278.446-70.333-376.227 0l-119.808-29.953c-71.797-17.95-122.166-82.461-122.166-156.467v-62.238c0-44.536 36.105-80.641 80.641-80.641h698.892c44.536 0 80.641 36.105 80.641 80.641v62.238c0 74.008-50.368 138.517-122.166 156.467zM1205.768 520.535h-132.27v132.27c0 12.724-10.317 23.040-23.040 23.040h-73.388c-12.724 0-23.040-10.317-23.040-23.040l-0.005-132.265-132.265-0.005c-12.724 0-23.040-10.317-23.040-23.040v-73.388c0-12.724 10.317-23.040 23.040-23.040l132.265-0.005 0.005-132.265c0-12.724 10.317-23.040 23.040-23.040h73.388c12.724 0 23.040 10.317 23.040 23.040l0.005 132.265 132.265 0.005c12.724 0 23.040 10.317 23.040 23.040v73.388c0 12.724-10.317 23.040-23.040 23.040z" />
<glyph unicode="&#xe932;" glyph-name="quote" d="M1024 649.73c0-171.297-35.897-307.955-107.69-409.978s-182.002-168.147-330.627-198.377v185.151c60.458 32.748 96.984 81.869 109.58 147.365h-109.58v506.332h438.317v-230.495zM438.317 649.73c0-171.297-35.897-307.955-107.69-409.978s-182.002-168.147-330.627-198.377v185.151c37.786 20.152 64.236 40.305 79.351 60.457s25.19 49.121 30.229 86.908h-109.58v506.332h438.317v-230.495z" />
<glyph unicode="&#xe933;" glyph-name="search-plus" d="M688.026 556.544c0 0.122 0 0.266 0 0.41 0 150.151-121.721 271.872-271.872 271.872-0.054 0-0.108 0-0.163 0h0.009c-0.046 0-0.1 0-0.154 0-150.151 0-271.872-121.721-271.872-271.872 0-0.126 0-0.252 0-0.378v0.020c0-0.107 0-0.232 0-0.358 0-150.151 121.721-271.872 271.872-271.872 0.054 0 0.108 0 0.163 0h-0.009c0.046 0 0.1 0 0.154 0 150.151 0 271.872 121.721 271.872 271.872 0 0.126 0 0.252 0 0.378v-0.020zM1010.022 19.456l-56.627-56.576c-8.662-8.702-20.649-14.087-33.894-14.087s-25.233 5.385-33.893 14.085l-0.002 0.002-199.629 199.424c-8.638 8.674-13.978 20.638-13.978 33.849 0 0.052 0 0.104 0 0.156v-0.008 32.563c-69.569-54.841-158.486-87.962-255.139-87.962-0.303 0-0.606 0-0.908 0.001h0.048c-0.030 0-0.066 0-0.102 0-229.694 0-415.898 186.204-415.898 415.898 0 0.018 0 0.036 0 0.054v-0.003c0 0.015 0 0.033 0 0.051 0 229.694 186.204 415.898 415.898 415.898 0.036 0 0.072 0 0.108 0h-0.006c0.030 0 0.066 0 0.102 0 229.694 0 415.898-186.204 415.898-415.898 0-0.018 0-0.036 0-0.054v0.003c0-96.614-32.768-185.395-88.013-256h32.614c12.8 0 24.986-4.966 33.997-13.978l199.424-199.373c8.628-8.734 13.957-20.743 13.957-33.997s-5.329-25.263-13.962-34.002l0.005 0.005zM608 588.8v-64c-0.058-13.228-10.781-23.933-24.010-23.962h-111.977v-111.974c-0.029-13.25-10.763-23.984-24.010-24.013h-64.003c-13.25 0.029-23.984 10.763-24.013 24.010v111.977h-111.974c-13.25 0.029-23.984 10.763-24.013 24.010v64.003c0.058 13.228 10.781 23.933 24.010 23.962h111.977v112.026c0.058 13.228 10.781 23.933 24.010 23.962h64.003c13.232-0.029 23.955-10.733 24.013-23.956v-112.032h111.974c13.232-0.029 23.955-10.733 24.013-23.956v-0.006z" />
<glyph unicode="&#xe934;" glyph-name="text-width" d="M1013.305 201.502l-182.898 177.778c-21.276 20.708-62.407 9.614-62.407-25.145v-106.667h-512v106.667c0 31.744-39.538 47.332-62.407 25.145l-182.898-177.778c-6.606-6.355-10.71-15.271-10.71-25.145s4.104-18.79 10.699-25.134l0.011-0.011 182.898-177.778c21.276-20.708 62.407-9.614 62.407 25.145v106.667h512v-106.667c0-31.744 39.538-47.332 62.407-25.145l182.898 177.778c6.606 6.355 10.71 15.271 10.71 25.145s-4.104 18.79-10.699 25.134l-0.011 0.011zM36.523 958.579h950.898c20.196 0 36.58-15.929 36.58-35.556v-213.333c-0.286-19.7-16.323-35.559-36.064-35.559-0.181 0-0.362 0.001-0.543 0.004h-81.097c-0.153-0.002-0.334-0.004-0.516-0.004-19.741 0-35.777 15.859-36.064 35.532v106.694h-271.474v-284.444h78.336c20.196 0 36.58-15.929 36.58-35.556v-71.111c-0.286-19.7-16.323-35.559-36.064-35.559-0.181 0-0.362 0.001-0.543 0.004h-329.132c-0.153-0.002-0.334-0.004-0.516-0.004-19.741 0-35.777 15.859-36.064 35.532v71.138c0 19.627 16.384 35.556 36.58 35.556h78.336v284.444h-271.474v-106.667c-0.286-19.7-16.323-35.559-36.064-35.559-0.181 0-0.362 0.001-0.543 0.004h-81.097c-0.153-0.002-0.334-0.004-0.516-0.004-19.741 0-35.777 15.859-36.064 35.532v213.36c0 19.627 16.384 35.556 36.58 35.556z" />
<glyph unicode="&#xe935;" glyph-name="pdf" horiz-adv-x="768" d="M164.571 863.086c-25.6 0-47.543-21.943-47.543-47.543 0 0 0 0 0 0v-25.6c0-25.6 21.943-47.543 47.543-47.543s47.543 21.943 47.543 47.543c0 0 0 0 0 0v25.6c0 29.257-21.943 47.543-47.543 47.543zM175.543 793.6c0-7.314-3.657-10.971-10.971-10.971s-10.971 3.657-10.971 10.971v21.943c0 7.314 3.657 10.971 10.971 10.971s10.971-3.657 10.971-10.971v-21.943zM354.743 742.4c14.629 0 25.6 10.971 25.6 25.6s-14.629 25.6-25.6 25.6h-84.114c-14.629 0-25.6-10.971-25.6-25.6s10.971-25.6 25.6-25.6h84.114zM117.029 647.314v0c0-14.629 10.971-25.6 25.6-25.6h212.114c14.629 0 25.6 10.971 25.6 25.6s-14.629 25.6-25.6 25.6c0 0 0 0 0 0h-212.114c-14.629 0-25.6-10.971-25.6-25.6zM746.057 778.971c10.971 0 21.943 10.971 21.943 25.6v21.943c0 80.457-65.829 146.286-146.286 146.286h-475.429c-80.457 0-146.286-65.829-146.286-146.286v-731.429c0-80.457 65.829-146.286 146.286-146.286h475.429c80.457 0 146.286 65.829 146.286 146.286v610.743c0 14.629-10.971 25.6-21.943 25.6-14.629 0-21.943-10.971-21.943-25.6v-636.343c0-40.229-32.914-73.143-73.143-73.143h-530.286c-40.229 0-73.143 32.914-73.143 73.143v782.629c0 40.229 32.914 73.143 73.143 73.143h526.629c40.229 0 73.143-32.914 73.143-73.143v-47.543c0-14.629 10.971-25.6 25.6-25.6zM142.629 552.229c-14.629 0-25.6-10.971-25.6-25.6s10.971-25.6 25.6-25.6h138.971c14.629 0 25.6 10.971 25.6 25.6s-10.971 25.6-25.6 25.6h-138.971zM577.829 625.371c14.629 0 25.6 10.971 25.6 25.6s-10.971 25.6-25.6 25.6c0 0 0 0 0 0h-138.971c-14.629 0-25.6-10.971-25.6-25.6v0c0-14.629 10.971-25.6 25.6-25.6h138.971zM625.371 552.229h-186.514c-14.629 0-25.6-10.971-25.6-25.6s10.971-25.6 25.6-25.6h186.514c14.629 0 25.6 10.971 25.6 25.6s-10.971 25.6-25.6 25.6zM625.371 793.6h-186.514c-14.629 0-25.6-10.971-25.6-25.6v0c0-14.629 10.971-25.6 25.6-25.6h186.514c14.629 0 25.6 10.971 25.6 25.6s-10.971 25.6-25.6 25.6zM303.543 215.771c0 10.971-7.314 18.286-18.286 18.286h-18.286v-40.229h10.971c14.629 3.657 25.6 7.314 25.6 21.943zM420.571 197.486c0 21.943-7.314 36.571-29.257 36.571h-14.629v-73.143h14.629c18.286 0 29.257 10.971 29.257 36.571zM252.343 69.486h266.971c73.143 0 131.657 58.514 131.657 131.657s-58.514 131.657-131.657 131.657h-266.971c-73.143 0-131.657-58.514-131.657-131.657-3.657-73.143 58.514-131.657 131.657-131.657zM471.771 252.343h73.143v-18.286h-47.543v-29.257h43.886v-18.286h-43.886v-43.886h-21.943v109.714zM351.086 252.343h40.229c36.571 0 51.2-21.943 51.2-54.857s-14.629-54.857-51.2-54.857h-40.229v109.714zM245.029 252.343h43.886c25.6 0 36.571-18.286 36.571-36.571 0-21.943-14.629-36.571-36.571-36.571h-21.943v-36.571h-21.943v109.714z" />
<glyph unicode="&#xe936;" glyph-name="link" d="M935.117 883.917c-55.050 54.935-131.040 88.905-214.963 88.905s-159.913-33.97-214.968-88.91l-134.395-134.395c-55.079-54.997-89.152-131.019-89.152-214.998 0-102.824 51.079-193.717 129.247-248.69l0.967-0.644c12.8-8.909 30.106-7.578 41.114 3.482l42.138 42.086c16.691 16.691 24.166 38.502 23.398 59.597-0.407 10.474-5.781 19.613-13.82 25.172l-0.107 0.070c-38.167 26.28-62.868 69.733-62.868 118.955 0 39.764 16.12 75.764 42.183 101.819l134.4 134.4c26.078 26.011 62.068 42.094 101.815 42.094 40.254 0 76.655-16.497 102.812-43.098l0.020-0.020c55.501-56.576 53.76-147.866-2.304-203.93l-26.112-26.163c-5.802-5.824-9.389-13.857-9.389-22.728 0-3.761 0.645-7.371 1.829-10.726l-0.069 0.225c11.776-34.406 18.125-69.99 19.405-105.472 1.024-27.75 34.918-40.858 54.579-21.197l74.24 74.24c54.935 55.050 88.905 131.040 88.905 214.963s-33.97 159.913-88.91 214.968l0.005-0.005zM653.21 602.010c55.058-54.994 89.117-131.001 89.117-214.963s-34.059-159.97-89.114-214.961l-134.403-134.403c-55.050-54.935-131.040-88.905-214.963-88.905s-159.913 33.97-214.968 88.91l0.005-0.005c-54.935 55.050-88.905 131.040-88.905 214.963s33.97 159.913 88.91 214.968l74.235 74.235c19.661 19.661 53.555 6.605 54.579-21.248 1.28-35.43 7.68-71.014 19.405-105.472 1.115-3.13 1.76-6.74 1.76-10.501 0-8.846-3.566-16.859-9.34-22.679l-26.161-26.161c-56.064-56.064-57.856-147.354-2.355-203.93 26.178-26.637 62.59-43.144 102.857-43.144 39.76 0 75.76 16.094 101.843 42.122l134.398 134.398c26.063 26.056 42.183 62.055 42.183 101.819 0 49.222-24.701 92.675-62.383 118.64l-0.484 0.315c-8.145 5.629-13.519 14.767-13.925 25.181l-0.002 0.061c-0.768 21.094 6.707 42.906 23.398 59.597l42.138 42.086c5.805 5.782 13.812 9.356 22.653 9.356 6.937 0 13.36-2.2 18.61-5.941l-0.098 0.066c14.643-10.24 28.365-21.76 41.011-34.406z" />
<glyph unicode="&#xe937;" glyph-name="compass" d="M618.205 739.83c35.675 33.984 93.917 0.37 82.343-47.566l-68.866-284.394c-2.381-9.594-7.293-17.817-13.985-24.187l-211.956-201.913c-35.252-33.613-94.023-0.898-82.29 47.566l68.866 284.394c2.371 9.614 7.285 17.856 13.985 24.239l0.021 0.019zM511.973 972.8c-282.756 0-511.973-229.217-511.973-512.027 0-282.756 229.217-511.973 512.027-511.973 282.756 0 511.973 229.217 511.973 512.027 0 282.756-229.217 511.973-512.027 511.973z" />
<glyph unicode="&#xe938;" glyph-name="calendar-date-top" d="M153.6 51.2v563.2h716.8v-563.2h-716.8zM716.8 972.8v-102.4h-409.6v102.4h-102.4v-102.4h-51.2c-56.576 0-101.888-45.824-101.888-102.4l-0.512-716.8c0-56.576 45.824-102.4 102.4-102.4h716.8c56.576 0 102.4 45.824 102.4 102.4v716.8c0 56.576-45.824 102.4-102.4 102.4h-51.2v102.4h-102.4zM256 256h256v256h-256v-256z" />
<glyph unicode="&#xe939;" glyph-name="reload" d="M512 181.527c-144.655 0-261.818 124.975-261.818 279.273 0 47.22 11.127 91.462 30.327 130.537l-63.709 67.956c-33.818-57.693-53.891-125.417-53.891-198.493 0-205.731 156.218-372.364 349.091-372.364v-139.636l174.545 186.182-174.545 186.182v-139.636zM512 833.164v139.636l-174.545-186.182 174.545-186.182v139.636c144.655 0 261.818-124.975 261.818-279.273 0-47.244-11.127-91.485-30.327-130.56l63.709-67.956c33.818 57.693 53.891 125.417 53.891 198.516 0 205.731-156.218 372.364-349.091 372.364z" />
<glyph unicode="&#xe93a;" glyph-name="pencil" d="M20.555 174.019v-204.937h204.8l604.297 604.706-204.8 204.937zM987.484 731.758c9.863 9.9 15.961 23.557 15.961 38.639s-6.098 28.739-15.963 38.641l-127.52 127.52c-9.9 9.863-23.557 15.961-38.639 15.961s-28.739-6.098-38.641-15.963l-99.94-99.94 204.8-204.8z" />
<glyph unicode="&#xe93b;" glyph-name="long-arrow-left" d="M588.62 881.023l-50.737 49.333c-21.483 20.889-56.222 20.889-77.477 0l-444.294-431.778c-21.483-20.889-21.483-54.667 0-75.333l444.294-432c21.483-20.889 56.222-20.889 77.477 0l50.737 49.333c21.712 21.111 21.254 55.556-0.914 76.222l-275.398 255.111h656.842c30.397 0 54.851 23.778 54.851 53.333v71.111c0 29.556-24.454 53.333-54.851 53.333h-656.842l275.398 255.111c22.398 20.667 22.854 55.111 0.914 76.222z" />
<glyph unicode="&#xe93c;" glyph-name="birthday-cake" d="M972.8 204.8c-57.641 0-64.306 64-153.257 64-89.342 0-96.326-64-153.771-64-56.973 0-64.705 64-153.771 64-88.132 0-97.134-64-153.257-64-57.904 0-64.187 64-153.771 64-89.582 0-95.972-64-153.771-64v160c0 53 44.229 96 98.743 96h32.914v288h131.657v-288h131.657v288h131.657v-288h131.657v288h131.657v-288h32.914c54.514 0 98.743-43 98.743-96v-160zM972.8-51.2h-921.6v192c89.189 0 96.206 64 153.771 64 57.499 0 64.292-64 153.771-64 88.134 0 97.132 64 153.257 64 57.904 0 64.185-64 153.771-64 89.192 0 96.206 64 153.771 64 56.547 0 64.29-64 153.257-64v-192zM248.686 780.8c-36.514 0-65.829 28.5-65.829 64 0 62 65.829 46 65.829 128 24.686 0 65.829-59 65.829-112s-29.314-80-65.829-80zM512 780.8c-36.514 0-65.829 28.5-65.829 64 0 62 65.829 46 65.829 128 24.686 0 65.829-59 65.829-112s-29.314-80-65.829-80zM775.314 780.8c-36.514 0-65.829 28.5-65.829 64 0 62 65.829 46 65.829 128 24.686 0 65.829-59 65.829-112s-29.314-80-65.829-80z" />
<glyph unicode="&#xe93d;" glyph-name="listing" horiz-adv-x="931" d="M837.818 926.255c51.2 0 93.091-41.891 93.091-93.091v-558.545c0-51.2-41.891-93.091-93.091-93.091h-651.636l-186.182-186.182v837.818c0 51.2 41.891 93.091 93.091 93.091 0 0 744.727 0 744.727 0zM186.182 367.709h372.364v93.091h-372.364v-93.091zM186.182 646.982h558.545v93.091h-558.545v-93.091z" />
<glyph unicode="&#xe93e;" glyph-name="subscription" horiz-adv-x="1211" d="M1102.306 936.659h-999.906c-60.235 0-102.4-48.188-102.4-102.4v-102.4h1204.706v102.4c0 54.212-42.165 102.4-102.4 102.4zM132.518 231.906c0 12.047 12.047 24.094 24.094 24.094h150.588c12.047 0 24.094-12.047 24.094-24.094v-84.329c0-12.047-12.047-24.094-24.094-24.094h-150.588c-12.047 0-24.094 12.047-24.094 24.094v84.329zM403.576 231.906c0 12.047 12.047 24.094 24.094 24.094h283.106c12.047 0 24.094-12.047 24.094-24.094v-84.329c0-12.047-12.047-24.094-24.094-24.094h-283.106c-12.047 0-24.094 12.047-24.094 24.094v84.329zM0 87.341c0-54.212 42.165-102.4 102.4-102.4h1005.929c54.212 0 102.4 48.188 102.4 102.4v373.459h-1210.729v-373.459z" />
<glyph unicode="&#xe93f;" glyph-name="folder" horiz-adv-x="1138" d="M455.111 915.911h-341.333c-62.578 0-113.778-51.2-113.778-113.778 0 0 0 0 0 0v-682.667c0-62.578 51.2-113.778 113.778-113.778h910.222c62.578 0 113.778 51.2 113.778 113.778v568.889c0 62.578-51.2 113.778-113.778 113.778h-455.111l-113.778 113.778z" />
<glyph unicode="&#xe940;" glyph-name="home" horiz-adv-x="1138" d="M569 910.223l-568.889-477.867h170.667v-420.978h284.444v318.578h227.556v-318.578h284.444v420.978h170.667l-568.889 477.867z" />
<glyph unicode="&#xe941;" glyph-name="linkedin" d="M726.244 119.467v231.14c0 55.068-1.138 125.952-78.791 125.952-78.962 0-91.022-59.961-91.022-121.97v-235.122h-151.609v475.136h145.408v-64.91h2.048c20.309 37.319 69.86 76.686 143.588 76.686 153.429 0 181.988-98.418 181.988-226.418v-260.494zM145.579 745.017c0 47.104 39.31 85.561 88.007 85.561 48.469 0 88.007-38.457 88.007-85.561 0-47.332-39.253-85.561-88.007-85.561-48.697 0-88.007 38.457-88.007 85.561zM157.696 119.467v475.136h152.007v-475.136zM950.841 972.8h-877.909c-40.22 0-72.932-32.199-72.932-71.794v-851.968c0-39.595 32.711-71.794 72.932-71.794h877.909c40.22 0 73.159 32.199 73.159 71.794v851.968c0 39.595-32.939 71.794-73.159 71.794z" />
<glyph unicode="&#xe942;" glyph-name="pinterest" horiz-adv-x="931" d="M930.909 476.812c0-274.013-208.337-496.035-465.455-496.035-0.059 0-0.129 0-0.199 0-49.206 0-96.515 8.126-140.656 23.11l3.081-0.908c18.991 33.047 47.29 87.040 57.809 130.001 5.632 23.226 28.905 118.039 28.905 118.039 15.22-30.813 59.485-57.018 106.589-57.018 140.428 0 241.571 137.588 241.571 308.596 0 163.84-125.58 286.394-286.953 286.394-200.844 0-307.665-143.593-307.665-300.218 0-72.797 36.445-163.375 94.487-192.186 8.797-4.375 13.498-2.374 15.546 6.609 1.489 6.796 9.356 40.588 12.94 56.18 0.35 1.23 0.551 2.643 0.551 4.102 0 3.884-1.424 7.436-3.779 10.16l0.017-0.020c-18.944 24.995-34.304 70.563-34.304 113.199 0 109.382 77.684 215.18 210.199 215.18 114.269 0 194.42-82.991 194.42-201.821 0-134.191-63.628-227.142-146.385-227.142-45.615 0-79.965 40.169-68.887 89.553 13.126 59.020 38.493 122.601 38.493 165.236 0 37.981-19.177 69.818-58.927 69.818-46.732 0-84.247-51.433-84.247-120.46 0-43.985 13.824-73.542 13.824-73.542s-45.94-207.639-54.412-246.458c-9.356-42.822-5.585-103.191-1.676-142.383-173.056 72.192-295.796 251.811-295.796 462.010 0 273.967 208.337 495.988 465.455 495.988s465.455-222.022 465.455-495.988z" />
<glyph unicode="&#xe943;" glyph-name="instagram" d="M932.352 474.852c0 72.476 6.144 228.011-20.594 293.547-18.312 43.737-53.014 77.551-96.229 94.267l-1.165 0.396c-67.186 25.771-227.442 20.025-301.966 20.025s-234.553 5.973-301.966-20.025c-44.379-17.113-79.082-50.926-96.975-93.54l-0.419-1.124c-26.51-65.308-20.594-221.070-20.594-293.547 0-72.42-6.144-228.011 20.594-293.547 18.034-43.804 52.565-77.369 97.394-94.663 67.186-25.771 227.442-20.025 301.966-20.025s234.553-5.973 301.966 20.025c44.379 17.113 79.082 50.926 96.975 93.54l0.419 1.124c26.738 65.308 20.594 221.127 20.594 293.547zM1020.416 269.483c-4.153-79.758-22.869-150.414-82.716-208.612-59.847-58.482-132.494-76.686-214.471-80.441-84.537-4.665-337.92-4.665-422.4 0-82.034 3.982-154.453 22.187-214.528 80.441-60.075 58.197-78.791 128.853-82.716 208.668-4.779 82.204-4.779 328.647 0 410.852 4.153 79.815 22.642 150.471 82.716 208.668 60.075 58.254 132.722 76.459 214.471 80.213 84.537 4.722 337.92 4.722 422.4 0 82.034-3.982 154.681-22.187 214.528-80.441 60.075-58.197 78.791-128.853 82.716-208.668 4.779-82.204 4.779-328.42 0-410.624zM846.564 740.352c0-33.28-27.42-59.847-61.212-59.847-0.255-0.004-0.555-0.006-0.856-0.006-33.169 0-60.095 26.729-60.413 59.823v0.030c0 32.996 27.42 59.847 61.269 59.847 33.792 0 61.212-26.795 61.212-59.847zM512.114 308.85c93.867 0 170.667 74.468 170.667 166.002 0 91.591-76.572 166.002-170.667 166.002s-170.667-74.468-170.667-166.002c0-91.591 76.8-166.002 170.667-166.002zM774.599 474.852c0-141.312-117.191-255.317-262.485-255.317s-262.485 114.005-262.485 255.317c0 141.312 117.191 255.317 262.485 255.317s262.485-114.005 262.485-255.317z" />
<glyph unicode="&#xe944;" glyph-name="twitter" horiz-adv-x="1205" d="M1080.862 728.968c0.783-10.722 0.783-21.444 0.783-32.105 0-326.415-248.471-702.524-702.524-702.524-139.866 0-269.854 40.538-379.121 110.833 19.878-2.289 38.972-3.012 59.633-3.012 0.397-0.001 0.866-0.002 1.335-0.002 115.648 0 222.025 39.697 306.246 106.208l-1.044-0.795c-107.62 2.014-198.266 72.464-230.381 169.562l-0.501 1.747c15.3-2.289 30.6-3.855 46.622-3.855 22.167 0 44.333 3.012 64.994 8.433-113.74 23.615-197.994 122.999-197.994 242.061 0 0.094 0 0.187 0 0.28v-0.015 3.012c32.888-18.312 71.078-29.816 111.616-31.322-66.73 44.863-110.050 120.077-110.050 205.409 0 0.082 0 0.164 0 0.247v-0.012c0 45.839 12.228 87.944 33.611 124.567 122.347-149.74 303.321-247.592 507.381-258.277l1.727-0.072c-3.789 16.952-6.021 36.462-6.144 56.471v0.090c0 0.036 0 0.078 0 0.121 0 136.295 110.489 246.784 246.784 246.784 0.063 0 0.127 0 0.19 0h-0.010c0.16 0 0.35 0.001 0.539 0.001 70.863 0 134.738-29.919 179.683-77.813l0.123-0.132c59.090 11.604 111.629 32.317 158.913 60.854l-2.181-1.221c-19.101-58.074-57.49-105.408-107.437-135.513l-1.107-0.619c52.685 6.144 100.732 19.626 145.301 39.503l-3.145-1.253c-34.449-49.75-75.463-91.99-122.397-126.677l-1.447-1.021z" />
<glyph unicode="&#xe945;" glyph-name="facebook" d="M1024 917.902v-885.532c0-30.436-25.372-54.898-56.434-54.898h-261.063v385.308h133.063l19.911 150.244h-153.202v95.972c0 43.577 12.345 73.159 76.572 73.159h81.863v134.428c-14.222 1.764-62.635 5.973-119.353 5.973-117.931 0-198.827-69.973-198.827-198.656v-110.876h-133.518v-150.187h133.518v-385.593h-490.098c-31.061 0-56.434 24.69-56.434 54.898v885.76c0 30.208 25.372 54.898 56.434 54.898h910.905c31.289 0 56.661-24.69 56.661-54.898z" />
<glyph unicode="&#xe946;" glyph-name="file" horiz-adv-x="768" d="M118.126 791.223c0-26.156 21.204-47.36 47.36-47.36s47.36 21.204 47.36 47.36v0 25.966c0 26.156-21.204 47.36-47.36 47.36s-47.36-21.204-47.36-47.36v0zM153.6 816.457c0 6.564 5.321 11.886 11.886 11.886s11.886-5.321 11.886-11.886v0-24.503c0-6.564-5.321-11.886-11.886-11.886s-11.886 5.321-11.886 11.886v0zM472.32 141.568v112.384h71.68v-19.419h-48.128v-29.989h43.886v-19.017h-43.886v-43.959zM376.027 160.841h14.555c18.176 0 29.074 9.289 29.074 36.791 0 20.992-6.583 37.047-29.074 37.047h-14.555zM393.874 253.952c35.621 0 49.408-22.711 49.408-55.808 0-33.024-13.714-56.576-49.408-56.576h-41.289v112.384zM266.533 196.827h12.361c14.482 0 23.259 4.608 23.259 19.163 0 12.361-7.095 19.273-18.798 19.273h-16.823zM288.183 253.952c24.247 0 37.742-16.786 37.742-37.961 0-21.394-13.641-37.632-37.961-37.632h-21.321v-36.791h-23.369v112.384zM0 826.514c0 80.791 65.494 146.286 146.286 146.286v0h475.429c80.791 0 146.286-65.494 146.286-146.286v0-22.309c0-13.349-10.569-24.137-23.589-24.137-13.063 0.164-23.59 10.793-23.59 23.879 0 0.091 0.001 0.181 0.002 0.272v-0.014 47.177c0 40.396-32.747 73.143-73.143 73.143v0h-527.36c-40.396 0-73.143-32.747-73.143-73.143v0-781.166c0-40.396 32.747-73.143 73.143-73.143v0h527.36c40.396 0 73.143 32.747 73.143 73.143v0 637.44c0 13.349 10.569 24.137 23.589 24.137s23.589-10.789 23.589-24.137v-612.571c0-80.791-65.494-146.286-146.286-146.286v0h-475.429c-80.791 0-146.286 65.494-146.286 146.286v0zM247.954 768c0-13.349 10.789-24.137 24.137-24.137h81.92c13.331 0 24.137 10.807 24.137 24.137s-10.807 24.137-24.137 24.137h-81.92c-13.331 0-24.137-10.807-24.137-24.137v0zM413.623 647.497c0-13.239 10.715-23.954 23.954-23.954h141.166c13.23 0 23.954 10.725 23.954 23.954s-10.725 23.954-23.954 23.954h-141.166c-13.23 0-23.954-10.725-23.954-23.954v0zM118.126 647.497c0-13.239 10.715-23.954 23.954-23.954h212.114c13.23 0 23.954 10.725 23.954 23.954s-10.725 23.954-23.954 23.954h-212.114c-13.23 0-23.954-10.725-23.954-23.954v0zM413.623 526.994c0-13.349 10.789-24.137 24.137-24.137h187.977c13.331 0 24.137 10.807 24.137 24.137s-10.807 24.137-24.137 24.137h-187.977c-13.331 0-24.137-10.807-24.137-24.137v0zM413.623 768c0-13.349 10.789-24.137 24.137-24.137h187.977c13.331 0 24.137 10.807 24.137 24.137s-10.807 24.137-24.137 24.137h-187.977c-13.331 0-24.137-10.807-24.137-24.137v0zM118.126 526.994c0-13.349 10.789-24.137 24.137-24.137h140.8c13.331 0 24.137 10.807 24.137 24.137s-10.807 24.137-24.137 24.137h-140.8c-13.331 0-24.137-10.807-24.137-24.137v0zM118.126 201.691c0-73.217 59.354-132.571 132.571-132.571v0h266.606c73.217 0 132.571 59.354 132.571 132.571s-59.354 132.571-132.571 132.571v0h-266.606c-73.217 0-132.571-59.354-132.571-132.571v0z" />
<glyph unicode="&#xe947;" glyph-name="cross-thin" d="M892.928 939.008l-381.235-381.235-381.338 381.235-96.563-96.563 381.235-381.235-381.235-381.338 96.563-96.563 381.338 381.235 381.235-381.235 96.563 96.563-381.235 381.338 381.235 381.235z" />
<glyph unicode="&#xe948;" glyph-name="eye-slash" horiz-adv-x="1144" d="M364.424 480.858l153.118-220.883c-89.444 24.343-154.129 104.835-154.129 200.434 0 7.201 0.367 14.317 1.083 21.329l-0.073-0.88zM837.512 460.439c0 150.588-120.169 272.384-268.649 272.384-35.418 0-69.271-6.987-100.171-19.576l38.129-54.212c18.528 6.145 39.857 9.689 62.014 9.689 35.459 0 68.798-9.078 97.819-25.038l-1.053 0.531c-46.743 0-84.631-38.43-84.631-85.775 0-47.285 37.828-85.775 84.57-85.775s84.631 38.43 84.631 85.775v0.060c15.237-28.414 24.189-62.165 24.189-98.006 0-46.703-15.199-89.856-40.921-124.783l0.408 0.581 38.129-54.212c40.738 47.468 65.537 109.649 65.537 177.622 0 0.258 0 0.517-0.001 0.775v-0.040zM1124.653 412.070c-63.652-107.839-154.554-193.578-263.387-249.251l-3.636-1.689 81.92-118.423c15.059-21.745 9.818-51.682-11.625-66.861l-25.901-18.372c-7.564-5.431-17.010-8.685-27.216-8.685-16.052 0-30.225 8.050-38.7 20.334l-0.103 0.157-637.832 909.613c-5.367 7.68-8.576 17.214-8.576 27.497 0 16.168 7.933 30.483 20.119 39.266l0.143 0.098 25.901 18.372c7.564 5.431 17.010 8.685 27.216 8.685 16.052 0 30.225-8.050 38.7-20.334l0.103-0.157 100.834-145.227c53.007 14.155 108.785 21.685 166.249 21.685 236.725 0 444.416-127.88 555.791-319.247 17.468-30.118 17.468-67.403 0-97.461zM566.272 188.838l64.392-93.064c-18.683-1.929-40.37-3.030-62.313-3.030-235.755 0-441.846 127.007-553.584 316.331l-1.635 2.994c-8.255 13.967-13.132 30.779-13.132 48.73s4.877 34.763 13.379 49.183l-0.247-0.453c48.616 82.471 112.196 150.972 187.604 203.724l2.077 1.377 112.76-163.117c-9.695-26.947-15.3-58.041-15.3-90.444 0-0.095 0-0.19 0-0.285v0.015c0-149.444 118.784-270.577 266.059-271.962z" />
<glyph unicode="&#xe949;" glyph-name="apps" horiz-adv-x="1138" d="M1062.229 414.549l-226.645-92.046-226.702 92.046v1.308l226.702 84.878 226.645-84.878zM1062.229 165.66l-188.871-94.436v175.787l188.871 86.187zM528.896 414.549l-226.645-92.046-226.702 92.046v1.308l226.702 84.878 226.645-84.878zM528.896 165.66l-188.871-94.436v175.787l188.871 86.187zM342.244 812.487l226.361 84.935 226.418-84.878v-1.365l-226.418-91.989-226.418 91.989zM795.534 566.5l-188.871-70.884v151.552l188.871 82.261zM1085.781 487.879l-214.699 80.441v241.095c0 33.337-20.651 63.147-51.996 74.866l-222.208 83.342c-8.342 3.268-18.001 5.162-28.103 5.162s-19.761-1.894-28.642-5.347l0.539 0.184-222.208-83.342c-31.346-11.776-51.996-41.529-51.996-74.866v-241.095l-214.699-80.441c-31.118-11.776-51.769-41.529-51.769-74.923v-244.622c0-30.265 17.067-58.027 44.203-71.566l222.265-111.161c22.414-11.321 49.095-11.321 71.509 0l230.912 115.598 230.912-115.598c22.414-11.321 49.095-11.321 71.509 0l222.265 111.161c27.079 13.54 44.203 41.301 44.203 71.509v244.679c0 33.337-20.651 63.147-51.996 74.923z" />
<glyph unicode="&#xe94a;" glyph-name="cart" horiz-adv-x="1138" d="M1043.172 370.176l93.412 415.972c0.786 3.248 1.237 6.976 1.237 10.81 0 26.298-21.218 47.641-47.469 47.842h-775.87l-18.091 89.6c-4.426 21.974-23.531 38.305-46.468 38.4h-202.534c-26.214-0.193-47.389-21.488-47.389-47.729 0-0.1 0-0.201 0.001-0.301v0.015-31.972c0-26.51 21.22-48.014 47.388-48.014h138.069l138.752-686.876c-33.223-19.342-55.58-55.58-55.58-97.109 0-61.895 49.493-112.014 110.649-112.014 61.099 0 110.592 50.119 110.592 112.014 0 31.289-12.743 59.676-33.223 79.986h414.151c-20.48-20.309-33.28-48.64-33.28-79.986 0-61.895 49.493-112.014 110.649-112.014 61.099 0 110.592 50.119 110.592 112.014 0 44.373-25.429 82.66-62.35 100.807l10.866 48.526c0.786 3.248 1.237 6.977 1.237 10.811 0 26.278-21.186 47.608-47.409 47.842h-530.226l-12.971 64h579.072c22.13 0 41.301 15.531 46.251 37.376z" />
<glyph unicode="&#xe94b;" glyph-name="discs" horiz-adv-x="878" d="M438.857 228.206c-171.983 0-344.552 29.355-438.857 92.404v-195.633c0-76.605 196.559-139.118 438.857-139.118s438.857 62.513 438.857 139.118v195.633c-94.306-63.049-266.874-92.404-438.857-92.404zM438.857 532.968c-171.983 0-344.552 29.355-438.857 92.404v-195.633c0-76.605 196.559-139.118 438.857-139.118s438.857 62.513 438.857 139.118v195.633c-94.306-63.049-266.874-92.404-438.857-92.404zM438.857 960.61c-242.298 0-438.857-62.562-438.857-139.313v-87.089c0-76.751 196.559-139.313 438.857-139.313s438.857 62.562 438.857 139.313v87.089c0 76.751-196.559 139.313-438.857 139.313z" />
<glyph unicode="&#xe94c;" glyph-name="listing2" d="M921.6 972.8h-819.2c-56.32 0-102.4-46.080-102.4-102.4v-921.6l204.8 204.8h716.8c56.32 0 102.4 46.080 102.4 102.4v614.4c0 56.32-46.080 102.4-102.4 102.4zM614.4 358.4h-409.6v102.4h409.6v-102.4zM819.2 512h-614.4v102.4h614.4v-102.4zM819.2 665.6h-614.4v102.4h614.4v-102.4z" />
<glyph unicode="&#xe94d;" glyph-name="monitor" horiz-adv-x="1078" d="M958.141 292.379h-838.387v545.684h838.387zM988.052 959.326h-898.21c-49.583 0-89.843-40.744-89.843-90.974v-606.316c0-50.176 40.259-90.92 89.843-90.92h359.262l-29.912-90.974h-134.737c-24.844-0.091-44.949-20.253-44.949-45.11 0-0.114 0-0.228 0.001-0.341v0.017c0-25.223 20.049-45.487 44.948-45.487h508.982c24.845 0.091 44.95 20.252 44.95 45.11 0 0.133-0.001 0.265-0.002 0.398v-0.020c0.001 0.096 0.001 0.21 0.001 0.324 0 24.857-20.105 45.018-44.941 45.11h-134.746l-29.912 90.974h359.262c49.583 0 89.843 40.744 89.843 90.974v606.316c0 50.176-40.259 90.92-89.843 90.92z" />
<glyph unicode="&#xe94e;" glyph-name="wizard" d="M905.523 456.96l-34.97-5.018c-6.246-1.024-8.806-8.602-4.198-13.005l25.19-24.576-6.042-34.816c-0.065-0.376-0.102-0.808-0.102-1.25 0-4.242 3.438-7.68 7.68-7.68 1.352 0 2.622 0.349 3.726 0.963l-0.039-0.020 31.13 16.384 31.232-16.384c1.036-0.556 2.267-0.882 3.574-0.882 4.242 0 7.68 3.438 7.68 7.68 0 0.42-0.034 0.832-0.099 1.234l0.006-0.044-5.99 34.816 25.19 24.576c1.455 1.384 2.361 3.334 2.361 5.496 0 3.826-2.835 6.989-6.519 7.504l-0.040 0.005-34.97 5.018-15.616 31.59c-1.269 2.51-3.829 4.202-6.784 4.202s-5.515-1.691-6.764-4.158l-0.020-0.043zM73.677 903.731l-34.97-5.171c-6.195-1.024-8.806-8.704-4.198-13.056l25.19-24.73-5.99-34.918c-0.065-0.374-0.102-0.806-0.102-1.246 0-4.242 3.438-7.68 7.68-7.68 1.311 0 2.545 0.328 3.624 0.907l-0.041-0.020 31.232 16.435 31.181-16.435c1.053-0.577 2.306-0.917 3.639-0.917 4.242 0 7.68 3.438 7.68 7.68 0 0.451-0.039 0.892-0.113 1.321l0.007-0.046-6.042 34.918 25.19 24.73c1.413 1.394 2.288 3.329 2.288 5.469 0 3.82-2.789 6.989-6.443 7.581l-0.044 0.006-34.97 5.018-15.616 31.744c-1.168 2.661-3.78 4.486-6.818 4.486-2.979 0-5.549-1.755-6.731-4.287l-0.019-0.046zM457.421 903.731l-34.816-5.171c-3.697-0.598-6.487-3.766-6.487-7.587 0-2.14 0.875-4.076 2.288-5.468l0.001-0.001 25.088-24.73-5.99-34.918c-0.065-0.374-0.102-0.806-0.102-1.246 0-4.242 3.438-7.68 7.68-7.68 1.311 0 2.545 0.328 3.624 0.907l-0.041-0.020 31.078 16.435 31.078-16.435c1.038-0.559 2.273-0.887 3.583-0.887 4.242 0 7.68 3.438 7.68 7.68 0 0.44-0.037 0.871-0.108 1.291l0.006-0.045-5.99 34.918 25.088 24.73c4.608 4.403 2.048 12.237-4.147 13.056l-34.867 5.018-15.565 31.744c-1.149 2.669-3.756 4.504-6.792 4.504-2.977 0-5.542-1.764-6.706-4.305l-0.019-0.046zM254.618 846.49l-52.531-7.578c-5.599-0.848-9.841-5.627-9.841-11.397 0-3.214 1.317-6.121 3.44-8.211l0.002-0.001 38.093-36.966-9.011-52.224c-0.106-0.586-0.166-1.261-0.166-1.95 0-6.362 5.158-11.52 11.52-11.52 1.931 0 3.751 0.475 5.349 1.315l-0.063-0.030 46.899 24.781 46.899-24.576c1.535-0.809 3.355-1.284 5.286-1.284 6.362 0 11.52 5.158 11.52 11.52 0 0.689-0.060 1.364-0.176 2.019l0.010-0.069-9.011 52.224 38.093 36.966c2.125 2.091 3.441 4.998 3.441 8.213 0 5.77-4.242 10.549-9.778 11.389l-0.064 0.008-52.531 7.578-23.45 47.616c-4.045 8.192-16.282 8.192-20.48-0.205zM787.763 834.099l97.587-97.587-179.763-179.763-97.587 97.587zM270.029-37.222l739.84 739.942c8.702 8.662 14.087 20.649 14.087 33.894s-5.385 25.233-14.085 33.893l-188.111 188.213c-8.656 8.714-20.645 14.108-33.894 14.108s-25.238-5.394-33.892-14.105l-739.843-739.945c-8.702-8.662-14.087-20.649-14.087-33.894s5.385-25.233 14.085-33.893l188.111-188.213c8.696-8.628 20.672-13.96 33.894-13.96s25.199 5.332 33.897 13.963l-0.003-0.003z" />
</font>
</defs>
</svg>
