<?xml version="1.0" standalone="no"?>
<!DOCTYPE svg PUBLIC "-//W3C//DTD SVG 1.1//EN" "http://www.w3.org/Graphics/SVG/1.1/DTD/svg11.dtd" >
<svg xmlns="http://www.w3.org/2000/svg">
<metadata>Generated by IcoMoon</metadata>
<defs>
<font id="icomoon" horiz-adv-x="1024">
<font-face units-per-em="1024" ascent="960" descent="-64" />
<missing-glyph horiz-adv-x="1024" />
<glyph unicode="&#x20;" horiz-adv-x="512" d="" />
<glyph unicode="&#xe900;" glyph-name="plus" d="M402.538 570.262v402.538h218.957v-402.538h402.505v-218.924h-402.505v-402.538h-218.957v402.538h-402.538v218.924h402.538z" />
<glyph unicode="&#xe901;" glyph-name="chevron-up" d="M820.568 164.537c30.060-28.908 78.714-28.964 108.395-0.111l72.455 69.681c30.058 28.906 30.12 75.696 0.116 104.243l-435.21 418.533c-29.68 29.159-78.332 29.159-108.421 0.224l-435.324-418.645c-30.058-28.906-30.12-75.696-0.116-104.243l72.456-69.68c30.060-28.908 78.714-28.964 108.395-0.111l308.683 296.857 308.568-296.745z" />
<glyph unicode="&#xe902;" glyph-name="star" d="M1005.451 518.59l-202.326-198.887 47.856-280.962c8.511-50.18-43.892-88.877-88.81-65.048l-250.173 132.652-250.057-132.59c-44.976-24.054-97.45 14.74-88.92 65.034l47.847 280.913-202.306 198.867c-36.254 35.609-16.452 98.072 33.843 105.43l279.671 41.131 124.995 255.657c22.471 45.912 87.357 45.776 109.892-0.078l124.956-255.579 279.631-41.125c50.328-7.363 70.141-69.822 33.902-105.416z" />
<glyph unicode="&#xe903;" glyph-name="star-o" d="M1005.451 518.59l-202.326-198.887 47.856-280.962c8.511-50.18-43.892-88.877-88.81-65.048l-250.173 132.652-250.057-132.59c-44.976-24.054-97.45 14.74-88.92 65.034l47.847 280.913-202.306 198.867c-36.254 35.609-16.452 98.072 33.843 105.43l279.671 41.131 124.995 255.657c22.471 45.912 87.357 45.776 109.892-0.078l124.956-255.579 279.631-41.125c50.328-7.363 70.141-69.822 33.902-105.416zM943.524 556.745l-298.704 43.93-132.824 271.67-132.824-271.67-298.704-43.93 216.213-212.537-50.947-299.11 266.262 141.182 266.262-141.182-50.947 299.11 216.213 212.537z" />
<glyph unicode="&#xe904;" glyph-name="chevron-down" d="M820.568 757.063c30.060 28.908 78.714 28.964 108.395 0.111l72.455-69.681c30.058-28.906 30.12-75.696 0.116-104.243l-435.21-418.533c-29.68-29.159-78.332-29.159-108.421-0.224l-435.324 418.645c-30.058 28.906-30.12 75.696-0.116 104.243l72.456 69.68c30.060 28.908 78.714 28.964 108.395 0.111l308.683-296.857 308.568 296.745z" />
<glyph unicode="&#xe905;" glyph-name="facebook" d="M576-51.2v512h192v128h-192v128c12.324 49.934 26.409 85.927 128 64h64v192c-15.988-4.746-71.185 0-128 0-141.133 0-232.494-85.037-256-256v-128h-128v-128h128v-512h192z" />
<glyph unicode="&#xe906;" glyph-name="close-thin" d="M561.655 408.086v-459.286h-101.517v459.286h-460.138v100.492h460.138v464.221h101.517v-464.221h462.345v-100.492z" />
<glyph unicode="&#xe907;" glyph-name="long-arrow-right" d="M443.085 838.451l45.67 44.442c9.009 8.69 21.287 14.045 34.816 14.045s25.807-5.354 34.831-14.059l-0.015 0.014 399.872-389.12c8.906-8.566 14.439-20.584 14.439-33.894s-5.533-25.328-14.424-33.88l-0.015-0.015-399.872-389.222c-9.009-8.69-21.287-14.045-34.816-14.045s-25.807 5.354-34.831 14.059l0.015-0.014-45.67 44.442c-8.868 8.593-14.372 20.612-14.372 33.917 0 13.701 5.837 26.039 15.16 34.663l0.031 0.029 247.808 229.888h-591.155c-0.214-0.003-0.466-0.005-0.719-0.005-26.685 0-48.351 21.489-48.637 48.106v64.027c0 26.624 22.016 48.128 49.357 48.128h591.155l-247.808 229.786c-9.468 8.613-15.388 20.983-15.388 34.736 0 13.36 5.586 25.415 14.55 33.957l0.019 0.018z" />
<glyph unicode="&#xe908;" glyph-name="calendar-alt" d="M788.317 844.8h103.619c56.733 0 103.619-42.534 103.619-96v-96h-967.111v96c0 53.466 46.886 96 103.619 96h103.619v128h138.159v-128h276.317v128h138.159v-128zM28.444 588.8h967.111v-544c0-53.466-46.886-96-103.619-96h-759.873c-56.733 0-103.619 42.534-103.619 96v544zM304.761 180.8c0 13.062-11.479 24-25.905 24h-86.349c-14.426 0-25.905-10.938-25.905-24v-80c0-13.062 11.479-24 25.905-24h86.349c14.426 0 25.905 10.938 25.905 24v80zM304.761 436.8c0 13.062-11.479 24-25.905 24h-86.349c-14.426 0-25.905-10.938-25.905-24v-80c0-13.062 11.479-24 25.905-24h86.349c14.426 0 25.905 10.938 25.905 24v80zM581.079 180.8c0 13.062-11.479 24-25.905 24h-86.349c-14.426 0-25.905-10.938-25.905-24v-80c0-13.062 11.479-24 25.905-24h86.349c14.426 0 25.905 10.938 25.905 24v80zM581.079 436.8c0 13.062-11.479 24-25.905 24h-86.349c-14.426 0-25.905-10.938-25.905-24v-80c0-13.062 11.479-24 25.905-24h86.349c14.426 0 25.905 10.938 25.905 24v80zM857.396 180.8c0 13.062-11.479 24-25.905 24h-86.349c-14.426 0-25.905-10.938-25.905-24v-80c0-13.062 11.479-24 25.905-24h86.349c14.426 0 25.905 10.938 25.905 24v80zM857.396 436.8c0 13.062-11.479 24-25.905 24h-86.349c-14.426 0-25.905-10.938-25.905-24v-80c0-13.062 11.479-24 25.905-24h86.349c14.426 0 25.905 10.938 25.905 24v80z" />
<glyph unicode="&#xe909;" glyph-name="chevron-left" d="M808.263 769.368c28.908 30.060 28.964 78.714 0.111 108.395l-69.681 72.455c-28.906 30.058-75.696 30.12-104.243 0.116l-418.533-435.21c-29.159-29.68-29.159-78.332-0.224-108.421l418.645-435.324c28.906-30.058 75.696-30.12 104.243-0.116l69.68 72.456c28.908 30.060 28.964 78.714 0.111 108.395l-296.857 308.683 296.745 308.568z" />
<glyph unicode="&#xe90a;" glyph-name="chevron-right" d="M215.737 152.232c-28.908-30.060-28.964-78.714-0.111-108.395l69.681-72.455c28.906-30.058 75.696-30.12 104.243-0.116l418.533 435.21c29.159 29.68 29.159 78.332 0.224 108.421l-418.645 435.324c-28.906 30.058-75.696 30.12-104.243 0.116l-69.68-72.456c-28.908-30.060-28.964-78.714-0.111-108.395l296.857-308.683-296.745-308.568z" />
<glyph unicode="&#xe90b;" glyph-name="cancel" d="M920.502 972.801l-408.502-408.502-408.502 408.502-103.497-103.497 408.502-408.467-408.502-408.502 103.497-103.534 408.502 408.502 408.502-408.502 103.497 103.534-408.502 408.502 408.502 408.467z" />
<glyph unicode="&#xe90c;" glyph-name="double-arrow" d="M512 972.8l325.818-372.364h-651.636zM512-51.2l325.818 372.364h-651.636z" />
<glyph unicode="&#xe90d;" glyph-name="certificate" d="M988.345 290.464l-125.816-32.107 35.362-124.174c9.963-35.614-23.807-69.123-59.521-59.122l-123.806 35.282-31.834-124.801c-8.643-36.089-55.25-49.386-80.091-22.562l-90.638 92.696-89.56-91.563c-25.712-27.15-72.174-16.21-80.913 20.372l-32.096 125.858-124.134-35.375c-35.629-9.972-69.090 23.844-59.1 59.542l35.27 123.847-124.76 31.846c-36.508 8.75-49.232 54.867-22.281 80.374l92.392 90.413-91.532 89.588c-27.154 25.734-15.967 72.254 20.365 80.938l125.819 32.108-35.362 124.174c-9.963 35.615 23.807 69.122 59.521 59.122l123.807-35.282 31.835 124.802c8.621 35.991 55.279 48.793 80.439 22.193l90.29-93.008 89.648 92.337c25.315 26.74 72.305 15.192 80.823-20.465l32.095-125.858 124.134 35.375c35.629 9.972 69.090-23.844 59.1-59.542l-35.27-123.847 124.76-31.846c36.508-8.75 49.232-54.867 22.282-80.373l-92.392-90.415 91.809-89.852c26.798-25.788 15.564-72.018-20.644-80.674z" />
<glyph unicode="&#xe90e;" glyph-name="comments" horiz-adv-x="1260" d="M490.119 225.698c-82.268 0-159.785 15.458-227.868 42.743-68.65-56.112-152.876-90.304-242.355-100.105-0.647-0.071-1.297-0.107-1.947-0.107-8.174 0-15.559 5.71-17.541 13.854-2.144 9.054 4.569 14.626 11.216 21.269 32.858 33.003 72.691 58.949 88.27 169.822-62.663 62.745-99.892 141.063-99.892 226.075 0 206.329 219.453 373.552 490.119 373.552s490.119-167.221 490.119-373.552c-0.002-206.473-219.453-373.55-490.119-373.55zM1249.514-19.271c-30.51 30.005-67.499 53.591-81.964 154.384 150.554 147.584 114.152 358.709-82.432 473.291 0.068-3.049 0.144-6.096 0.144-9.157 0-279.984-283.532-494.615-621.953-482.793 83.41-70.768 205.651-115.41 341.885-115.41 76.393 0 148.373 14.053 211.592 38.857 63.746-51.010 141.955-82.094 225.046-91.003 8.284-0.903 16.11 4.51 18.095 12.496 1.993 8.231-4.24 13.296-10.413 19.335z" />
<glyph unicode="&#xe90f;" glyph-name="copy" d="M709.485 76.8v-80c0-26.51-22.104-48-49.371-48h-559.543c-27.267 0-49.371 21.49-49.371 48v736c0 26.51 22.104 48 49.371 48h148.114v-592c0-61.758 51.677-112 115.2-112h345.6zM709.485 764.8v208h-345.6c-27.267 0-49.371-21.49-49.371-48v-736c0-26.51 22.104-48 49.371-48h559.543c27.267 0 49.371 21.49 49.371 48v528h-213.943c-27.154 0-49.371 21.6-49.371 48zM958.339 826.858l-135.652 131.884c-9.259 9.001-21.816 14.058-34.91 14.058h-12.464v-192h197.486v12.118c0 12.73-5.201 24.938-14.46 33.94z" />
<glyph unicode="&#xe910;" glyph-name="edit" d="M715.733 771.93l160.356-162.36c6.756-6.84 6.756-18 0-24.84l-388.267-393.12-164.978-18.54c-22.044-2.52-40.711 16.38-38.222 38.7l18.311 167.040 388.267 393.12c6.756 6.84 17.778 6.84 24.533 0zM1003.733 813.15l-86.755 87.84c-27.023 27.36-70.933 27.36-98.134 0l-62.933-63.72c-6.756-6.84-6.756-18 0-24.84l160.356-162.36c6.756-6.84 17.778-6.84 24.533 0l62.933 63.72c27.023 27.54 27.023 72 0 99.36zM682.666 298.53v-183.24h-568.889v576h408.534c5.689 0 11.022 2.34 15.112 6.3l71.111 72c13.511 13.68 3.911 36.9-15.112 36.9h-508.089c-47.111 0-85.333-38.7-85.333-86.4v-633.6c0-47.7 38.222-86.4 85.333-86.4h625.778c47.111 0 85.333 38.7 85.333 86.4v284.040c0 19.26-22.933 28.8-36.444 15.3l-71.111-72c-3.911-4.14-6.222-9.54-6.222-15.3z" />
<glyph unicode="&#xe911;" glyph-name="hourglass-half" d="M839.384 972.8h-654.769c-25.83 0-46.769-21.49-46.769-48v-32c0-26.51 20.939-48 46.769-48 0-181.93 99.416-335.468 235.487-384-136.071-48.532-235.487-202.070-235.487-384-25.83 0-46.769-21.49-46.769-48v-32c0-26.51 20.939-48 46.769-48h654.769c25.83 0 46.769 21.49 46.769 48v32c0 26.51-20.939 48-46.769 48 0 181.93-99.416 335.468-235.487 384 136.071 48.532 235.487 202.070 235.487 384 25.83 0 46.769 21.49 46.769 48v32c0 26.51-20.939 48-46.769 48zM689.231 224.492h-354.462c32.537 92.154 99.364 157.538 177.229 157.538 77.859 0 144.694-65.371 177.233-157.538zM707.675 736.492h-351.93c-13.425 35.911-20.976 76.158-20.976 118.154h393.846c0-42.102-7.549-82.314-20.94-118.154z" />
<glyph unicode="&#xe912;" glyph-name="info-circle" d="M460.8 614.4v102.4h102.4v-102.4h-102.4zM460.8 204.8v307.2h102.4v-307.2h-102.4zM512 972.8c-282.88 0-512-229.12-512-512s229.12-512 512-512c282.88 0 512 229.12 512 512s-229.12 512-512 512z" />
<glyph unicode="&#xe913;" glyph-name="pin" d="M512 972.8c-209.408 0-379.328-160.513-379.328-358.4 0-268.8 379.328-665.6 379.328-665.6s379.328 396.8 379.328 665.6c0 197.888-169.92 358.4-379.328 358.4zM512 486.4c-74.753 0-135.488 57.344-135.488 128s60.736 128 135.488 128c74.753 0 135.488-57.344 135.488-128s-60.736-128-135.488-128z" />
<glyph unicode="&#xe914;" glyph-name="trash" d="M714.239 563.2c0 15.359-15.359 30.719-30.719 30.719s-30.719-15.359-30.719-30.719v-450.56c0-15.359 15.359-30.719 30.719-30.719s30.719 15.359 30.719 30.719v450.56zM540.16 563.2c0 15.359-15.359 30.719-30.719 30.719s-30.719-15.359-30.719-30.719v-450.56c0-15.359 15.359-30.719 30.719-30.719s30.719 15.359 30.719 30.719v450.56zM360.962 563.2c0 15.359-15.359 30.719-30.719 30.719s-30.719-15.359-30.719-30.719v-450.56c0-15.359 15.359-30.719 30.719-30.719s30.719 15.359 30.719 30.719v450.56zM862.72 696.319v-650.24c0-51.201-40.96-97.28-87.039-97.28h-527.359c-46.081 0-87.039 40.96-87.039 97.28v650.24c0 15.359 10.241 25.598 20.48 25.598h660.478c10.241 0 20.48-10.241 20.48-25.598v0zM99.842 808.959v56.322c0 25.598 20.48 46.081 46.081 46.081h204.799l15.359 35.84c5.12 15.359 20.48 25.598 40.96 25.598h209.919c15.359 0 30.719-10.241 40.96-25.598l15.359-35.84h204.799c25.598 0 46.081-20.48 46.081-46.081v-56.322c0-15.359-10.241-25.598-20.48-25.598h-773.116c-20.48 5.12-30.719 15.359-30.719 25.598v0z" />
<glyph unicode="&#xe915;" glyph-name="hourglass-start" d="M163.556 844.8c-27.117 0-49.778 21.1-49.778 48v32c0 26.9 22.661 48 49.778 48h696.889c27.117 0 49.778-21.1 49.778-48v-32c0-26.9-22.661-48-49.778-48 0-177.619-102.13-334.234-250.635-384 148.506-49.766 250.635-206.381 250.635-384 27.117 0 49.778-21.1 49.778-48v-32c0-26.9-22.661-48-49.778-48h-696.889c-27.117 0-49.778 21.1-49.778 48v32c0 26.9 22.661 48 49.778 48 0 177.619 102.13 334.234 250.635 384-148.506 49.766-250.635 206.381-250.635 384zM512 364.8c-117.204 0-215.704-129.341-215.704-288h431.407c0 158.673-98.495 288-215.704 288z" />
<glyph unicode="&#xe916;" glyph-name="linkedin" d="M16.58 632.785h212.379v-683.984h-212.379v683.984zM123.164 972.8c67.898 0 123.164-55.351 123.164-123.354s-55.266-123.354-123.164-123.354c-68.293 0-123.164 55.351-123.164 123.354s54.871 123.354 123.164 123.354zM362.387 632.785h203.3v-93.702h2.763c28.423 53.77 97.505 110.307 200.931 110.307 214.748 0 254.618-141.541 254.618-325.782v-374.808h-211.985v332.503c0 79.469-1.184 181.473-110.137 181.473-110.532 0-127.112-86.585-127.112-175.543v-338.434h-211.985v683.984h-0.395z" />
<glyph unicode="&#xe917;" glyph-name="pinterest" d="M526.962 972.8c-302.229 0-462.962-179.863-462.962-375.934 0-90.92 54.718-204.372 142.351-240.345 13.252-5.534 20.519-3.162 23.511 8.301 2.565 8.697 14.107 50.599 19.664 70.364 1.71 6.325 0.855 11.859-4.702 17.789-29.069 31.229-52.153 88.153-52.153 141.519 0 136.775 117.13 269.597 316.336 269.597 172.275 0 292.824-103.965 292.824-252.599 0-168.004-95.756-284.224-220.153-284.224-68.824 0-120.122 50.204-103.878 112.266 19.664 73.922 58.137 153.378 58.137 206.744 0 47.832-29.069 87.362-88.489 87.362-70.107 0-126.962-64.435-126.962-151.006 0-54.947 20.947-92.106 20.947-92.106s-69.252-260.11-82.076-308.732c-21.802-82.223 2.992-215.441 5.13-226.904 1.282-6.325 8.977-8.301 13.252-3.162 6.84 8.301 90.626 119.382 114.137 199.628 8.55 29.252 43.603 147.844 43.603 147.844 23.084-38.74 89.771-71.155 160.733-71.155 211.176 0 363.786 172.353 363.786 386.212-0.855 205.163-189.802 358.541-433.038 358.541z" />
<glyph unicode="&#xe918;" glyph-name="twitter" d="M1024 753.91c-37.673-15.449-78.132-25.876-120.67-30.513 43.371 23.985 76.691 61.972 92.407 107.225-40.618-22.183-85.557-38.37-133.409-47.025-38.346 37.662-92.951 61.204-153.414 61.204-116.029 0-210.037-86.784-210.037-193.861 0-15.183 1.824-30.011 5.409-44.19-174.604 8.094-329.394 85.278-433.036 202.575-18.053-28.652-28.423-61.942-28.423-97.477 0-67.289 37.097-126.602 93.431-161.398-34.409 1.034-66.801 9.718-95.128 24.251-0.032-0.798-0.032-1.654-0.032-2.422 0-93.962 72.402-172.327 168.522-190.139-17.604-4.401-36.169-6.794-55.342-6.794-13.571 0-26.695 1.211-39.498 3.456 26.695-76.977 104.314-133.041 196.209-134.636-71.858-51.988-162.441-83.033-260.865-83.033-16.964 0-33.704 0.916-50.125 2.718 92.951-54.942 203.379-87.050 322.033-87.050 386.401 0 597.749 295.414 597.749 551.631 0 8.389-0.256 16.778-0.64 25.108 41.066 27.323 76.659 61.44 104.858 100.372z" />
<glyph unicode="&#xe919;" glyph-name="instagram" d="M997.094 796.33c12.662-32.445 21.366-69.638 23.74-124.241 2.77-54.603 3.165-72.012 3.165-211.289s-0.791-156.686-3.165-211.289c-2.374-54.207-11.079-91.796-23.74-124.241-13.057-33.632-30.467-62.121-58.955-90.609s-56.977-45.898-90.609-58.955c-32.445-12.662-69.638-21.366-124.241-23.74-54.603-2.77-72.012-3.165-211.289-3.165s-156.686 0.791-211.289 3.165c-54.207 2.374-91.796 11.079-124.241 23.74-33.632 13.057-62.121 30.467-90.609 58.955s-45.898 56.977-58.955 90.609c-12.662 32.445-21.366 69.638-23.74 124.241-2.77 54.603-3.165 72.012-3.165 211.289s0.791 156.686 3.165 211.289c2.374 54.207 11.079 91.796 23.74 124.241 13.057 33.632 30.467 62.121 58.955 90.609s56.977 45.898 90.609 58.955c32.445 12.662 69.638 21.366 124.241 23.74 54.603 2.77 72.012 3.165 211.289 3.165s156.686-0.791 211.289-3.165c54.207-2.374 91.796-11.079 124.241-23.74 33.632-13.057 62.121-30.467 90.609-58.955s45.898-56.977 58.955-90.609zM893.107 271.693c2.169 49.175 2.893 64.362 2.893 189.107s-0.723 139.571-2.893 189.107c-2.169 45.559-9.763 70.147-16.271 86.78-8.678 22.056-18.802 37.605-35.073 53.876s-32.181 26.757-53.876 35.073c-16.271 6.508-41.22 14.102-86.78 16.271-49.175 2.531-64.362 2.893-189.107 2.893s-139.571-0.723-189.107-2.893c-45.559-2.169-70.147-9.763-86.78-16.271-22.056-8.678-37.605-18.802-53.876-35.073s-26.757-32.181-35.073-53.876c-6.508-16.271-14.102-41.22-16.271-86.78-2.531-49.175-2.893-64.362-2.893-189.107s0.723-139.571 2.893-189.107c2.169-45.559 9.763-70.147 16.271-86.78 8.678-22.056 18.802-37.605 35.073-53.876s32.181-26.757 53.876-35.073c16.271-6.508 41.22-14.102 86.78-16.271 49.175-2.531 64-2.893 189.107-2.893s139.571 0.723 189.107 2.893c45.559 2.169 70.147 9.763 86.78 16.271 22.056 8.678 37.605 18.802 53.876 35.073s26.757 32.181 35.073 53.876c6.508 16.271 14.102 41.22 16.271 86.78zM768 652.8c-35.346 0-64 28.654-64 64s28.654 64 64 64c35.346 0 64-28.654 64-64s-28.654-64-64-64zM512 716.8c141.281 0 256-114.719 256-256s-114.719-256-256-256c-141.281 0-256 114.719-256 256s114.719 256 256 256zM512 332.8c70.519 0 128 57.481 128 128 0 70.815-57.185 128-128 128s-128-57.481-128-128c0-70.815 57.481-128 128-128z" />
<glyph unicode="&#xe91a;" glyph-name="close-rounded" d="M512 972.8c-282.839 0-512-229.161-512-512s229.161-512 512-512c282.839 0 512 229.161 512 512s-229.161 512-512 512zM763.045 326.4c9.703-9.703 9.703-25.394 0-35.097l-81.755-81.548c-9.703-9.703-25.394-9.703-35.097 0l-134.194 135.432-134.4-135.432c-9.703-9.703-25.394-9.703-35.097 0l-81.548 81.755c-9.703 9.703-9.703 25.394 0 35.097l135.432 134.194-135.432 134.4c-9.703 9.703-9.703 25.394 0 35.097l81.755 81.755c9.703 9.703 25.394 9.703 35.097 0l134.194-135.639 134.4 135.432c9.703 9.703 25.394 9.703 35.097 0l81.755-81.755c9.703-9.703 9.703-25.394 0-35.097l-135.639-134.194 135.432-134.4z" />
<glyph unicode="&#xe91b;" glyph-name="warning" d="M460.8 307.2v-102.4h102.4v102.4h-102.4zM460.8 716.8v-307.2h102.4v307.2h-102.4zM512-51.2c-282.88 0-512 229.12-512 512s229.12 512 512 512c282.88 0 512-229.12 512-512s-229.12-512-512-512z" />
<glyph unicode="&#xe91c;" glyph-name="pencil-alt" d="M630.589 835.518l109.205 109.193c37.412 37.408 98.214 37.388 135.854-0.048l120.109-120.097c37.65-37.446 37.65-98.243 0.048-135.84l-109.205-109.193-256.012 255.985zM585.488 790.422l256.111-256.086-542.225-542.167-243.124-42.617c-32.75-5.59-61.28 22.878-55.501 55.559l42.412 243.042 542.326 542.268zM287.773 293.151l308.014 307.981c11.001 11 11.001 28.598 0 39.598s-28.601 11-39.602 0l-308.014-307.981c-11.001-11-11.001-28.598 0-39.598s28.601-11 39.602 0zM175.968 124.961v95.994h-72.603l-22.601-128.992 62.203-62.196 129.006 22.599v72.595h-96.004z" />
<glyph unicode="&#xe91d;" glyph-name="recycle" d="M47.536 584.814c-22.859 15.213-17.528 52.902 9.347 59.513l211.21 51.943c16.997 4.18 33.056-7.361 36.766-24.472l48.766-224.993c5.929-27.353-22.097-51.032-46.111-35.042l-78.052 51.955-97.46-166.143c-25.568-43.581 4.179-99.971 51.965-99.971h99.608c13.953 0 22.991-11.923 22.991-24.492v-81.641c0-12.57-9.040-24.492-22.991-24.492h-99.41c-144.602 0-232.274 169.735-155.979 299.776l97.377 166.12-78.026 51.938zM466.437 821.039l-36.709-55.209c-7.38-11.099-22.6-13.906-33.795-7.332l-69.323 40.712c-10.912 6.409-15.421 20.298-7.808 31.755l36.717 55.26c76.779 115.454 255.99 115.418 332.756-0.014l84.326-126.921 83.151 48.832c23.861 14.021 55.978-5.359 49.194-32.972l-52.013-211.741c-4.162-16.947-21.994-26.762-39.224-23.029l-225.292 48.883c-27.969 6.070-34.962 41.333-9.973 56.004l83.265 48.899-84.385 126.918c-25.485 38.322-85.283 38.461-110.887-0.042zM837.193 74.572h-186.32v-94.284c0-27.841-33.445-42.083-53.074-22.233l-155.463 157.156c-12.144 12.276-12.144 32.18 0 44.456l155.459 157.137c19.651 19.866 53.077 5.587 53.077-22.225v-94.268h186.522c48.642 0 78.544 54.437 52.731 96.193l-53.563 86.666c-6.78 10.971-3.574 25.541 7.42 32.488l65.801 41.571c11.009 6.955 25.365 3.458 32.137-7.507l53.466-86.571c77.535-125.423-11.811-288.578-158.195-288.578z" />
<glyph unicode="&#xe91e;" glyph-name="search" d="M1010.073 87.486l-199.415 199.381c-9.001 8.999-21.202 13.999-34.002 13.999h-32.602c55.204 70.593 88.006 159.384 88.006 255.975 0 229.778-186.214 415.959-416.030 415.959s-416.030-186.182-416.030-415.959c0-229.778 186.214-415.959 416.030-415.959 96.607 0 185.414 32.797 256.019 87.991v-32.597c0-12.799 5-24.998 14.001-33.997l199.415-199.381c18.801-18.798 49.204-18.798 67.805 0l56.604 56.594c18.801 18.798 18.801 49.195 0.2 67.993zM416.029 300.866c-141.41 0-256.019 114.389-256.019 255.975 0 141.386 114.408 255.975 256.019 255.975 141.41 0 256.019-114.389 256.019-255.975 0-141.386-114.408-255.975-256.019-255.975z" />
<glyph unicode="&#xe91f;" glyph-name="street-view" d="M384.001 844.8c0 70.692 57.308 128 128 128s128-57.308 128-128c0-70.692-57.308-128-128-128s-128 57.308-128 128zM368.001 332.8c-26.51 0-48 21.49-48 48v208c0 53.020 42.98 96 96 96h18.297l8.243-1.701c44.299-19.1 94.738-19.045 138.922 0.001l8.241 1.701h18.298c53.020 0 96-42.98 96-96v-208c0-26.51-21.49-48-48-48h-32v-208c0-26.51-21.49-48-48-48h-128c-26.51 0-48 21.49-48 48v208h-32zM771.878 295.438l8.124 11.002 13.324-3.088c144.060-33.39 230.674-88.445 230.674-162.552 0-118.131-230.38-192-512-192-281.622 0-512 73.877-512 192 0 74.107 86.616 129.165 230.673 162.553l13.324 3.088 8.124-11.002c4.362-5.908 9.165-11.471 14.365-16.646l27.256-27.124-37.612-7.995c-120.072-25.526-192.129-64.747-192.129-102.873 0-66.053 217.373-128 447.999-128 231.184 0 447.999 60.462 447.999 128 0 38.057-72.226 77.349-192.139 102.868l-37.602 8.003 27.251 27.117c5.201 5.176 10.005 10.742 14.368 16.651z" />
<glyph unicode="&#xe920;" glyph-name="tags" d="M796.706 393.564l-326.589-362.876c-29.993-33.325-78.62-33.325-108.611-0.001l-339.011 376.679c-14.473 16.081-22.494 37.813-22.494 60.34v362.876c0 46.417 33.67 85.333 76.8 85.333h326.589c20.521 0 40.004-9.103 54.306-24.994l339.011-376.679c29.992-33.324 29.992-87.355 0-120.679zM179.2 574.582c74.674 0 133.689 64.342 133.689 142.222s-59.015 142.222-133.689 142.222c-74.674 0-133.689-64.342-133.689-142.222s59.015-142.222 133.689-142.222zM530.236 915.915h77.954c20.521 0 40.004-9.103 54.306-24.994l339.011-376.679c29.992-33.324 29.992-87.355 0-120.679l-326.589-362.876c-19.665-21.85-48.365-30.181-75.172-21.794l-42.295 13.234 286.774 318.638c27.158 30.176 42.176 70.336 42.176 113.138 0 42.8-15.018 82.96-42.175 113.137l-313.989 348.875z" />
<glyph unicode="&#xe921;" glyph-name="toggle" d="M384.008 76.808c-32.766 0-65.532 12.543-90.49 37.502l-255.984 255.984c-50.045 50.045-50.045 130.936 0 180.981s130.936 50.045 180.981 0l165.494-165.494 421.478 421.478c50.045 50.045 130.936 50.045 180.981 0s50.045-130.936 0-180.981l-511.968-511.968c-24.958-24.958-57.724-37.502-90.49-37.502z" />
<glyph unicode="&#xe922;" glyph-name="heart" d="M750.871 904.534c-99.953 0-193.694-79.744-238.871-124.876-45.177 45.131-138.918 124.876-238.871 124.876-170.918 0-273.129-101.162-273.129-270.596 0-138.836 125.742-254.914 130.259-258.93l352-345.751c16.565-16.255 42.918-16.255 59.482 0l351.436 344.603c5.083 5.163 130.823 121.434 130.823 260.077 0 169.433-102.212 270.596-273.129 270.596z" />
<glyph unicode="&#xe923;" glyph-name="cross" d="M0 828.067l144.733 144.733 879.266-879.266-144.733-144.733zM1024 828.067l-144.733 144.733-879.266-879.266 144.733-144.733z" />
<glyph unicode="&#xe924;" glyph-name="dotted" horiz-adv-x="473" d="M7.089 903.68c0 43.503 35.266 78.769 78.769 78.769s78.769-35.266 78.769-78.769v0c0-43.503-35.266-78.769-78.769-78.769s-78.769 35.266-78.769 78.769v0zM307.988 903.68c0 43.503 35.266 78.769 78.769 78.769s78.769-35.266 78.769-78.769v0c0-43.503-35.266-78.769-78.769-78.769s-78.769 35.266-78.769 78.769v0zM7.089 616.96c0 43.503 35.266 78.769 78.769 78.769s78.769-35.266 78.769-78.769v0c0-43.503-35.266-78.769-78.769-78.769s-78.769 35.266-78.769 78.769v0zM307.988 616.96c0 43.503 35.266 78.769 78.769 78.769s78.769-35.266 78.769-78.769v0c0-43.503-35.266-78.769-78.769-78.769s-78.769 35.266-78.769 78.769v0zM7.089 330.24c0 43.503 35.266 78.769 78.769 78.769s78.769-35.266 78.769-78.769v0c0-43.503-35.266-78.769-78.769-78.769s-78.769 35.266-78.769 78.769v0zM307.988 330.24c0 43.503 35.266 78.769 78.769 78.769s78.769-35.266 78.769-78.769v0c0-43.503-35.266-78.769-78.769-78.769s-78.769 35.266-78.769 78.769v0zM7.089 43.52c0 43.503 35.266 78.769 78.769 78.769s78.769-35.266 78.769-78.769v0c0-43.503-35.266-78.769-78.769-78.769s-78.769 35.266-78.769 78.769v0zM307.988 43.52c0 43.503 35.266 78.769 78.769 78.769s78.769-35.266 78.769-78.769v0c0-43.503-35.266-78.769-78.769-78.769s-78.769 35.266-78.769 78.769v0z" />
<glyph unicode="&#xe925;" glyph-name="eye" d="M640.123 460.8c0-70.647-57.377-128.024-128.024-128.024s-128.024 57.377-128.024 128.024v1.066c13.676-13.868 32.432-22.404 53.344-22.404 41.202 0 74.68 33.5 74.68 74.68 0 29.659-17.475 55.477-42.462 67.427 13.228 4.695 27.525 7.255 42.462 7.255 70.627 0 128.024-57.397 128.024-128.024zM28.595 533.56c79.375 100.927 272.692 268.639 483.292 268.639 210.814 0 404.323-167.711 483.718-268.637 17.923-23.044 27.739-48.009 28.379-72.76-0.64-24.75-10.456-49.716-28.379-72.76-79.397-100.949-272.692-268.641-483.506-268.641s-404.109 167.689-483.506 268.637c-18.137 23.044-27.951 48.009-28.591 72.76 0.64 24.752 10.456 49.718 28.593 72.762zM512.099 247.426c117.783 0 213.374 95.592 213.374 213.374s-95.592 213.374-213.374 213.374-213.374-95.592-213.374-213.374c0.002-117.783 95.592-213.374 213.374-213.374z" />
<glyph unicode="&#xe926;" glyph-name="plus-rounded" horiz-adv-x="1088" d="M858.88 404.16c-0.073-13.672-11.155-24.732-24.829-24.768h-190.147v-190.144c-0.036-13.677-11.096-24.759-24.761-24.832h-115.783c-13.672 0.073-24.732 11.155-24.768 24.829v190.083h-190.144c-13.7 0.036-24.796 11.132-24.832 24.829v115.779c0 13.632 11.2 24.768 24.832 24.768h190.080v190.144c0 13.632 11.2 24.832 24.832 24.832h115.776c13.632 0 24.768-11.2 24.768-24.832v-190.080h190.144c13.632 0 24.768-11.2 24.768-24.832zM560.896 974.4c-282.816 0-512-229.184-512-512 0-282.88 229.184-512 512-512 282.88 0 512 229.12 512 512 0 282.816-229.12 512-512 512z" />
<glyph unicode="&#xe927;" glyph-name="pdf" horiz-adv-x="784" d="M48.267 903.048v-884.495c0-12.081 9.554-21.564 21.339-21.564h645.128c11.616 0 21.339 9.655 21.339 21.564v884.495c0 12.081-9.554 21.564-21.339 21.564h-645.128c-11.616 0-21.339-9.655-21.339-21.564zM784.34 804.141c0-13.307-10.805-24.094-24.134-24.094s-24.134 10.787-24.134 24.094v-96.376c0 13.307 10.805 24.094 24.134 24.094s24.134-10.787 24.134-24.094v-716.268c0-23.581-19-42.696-42.727-42.696h-698.887c-23.597 0-42.727 19.092-42.727 42.696v938.607c0 23.581 19 42.696 42.727 42.696h698.887c23.597 0 42.727-19.092 42.727-42.696v-125.963zM253.402 768c0-13.4 10.762-24.094 24.037-24.094h84.66c13.175 0 24.037 10.787 24.037 24.094 0 13.4-10.762 24.094-24.037 24.094h-84.66c-13.175 0-24.037-10.787-24.037-24.094zM422.337 647.529c0-13.4 10.773-24.094 24.062-24.094h144.945c13.129 0 24.062 10.787 24.062 24.094 0 13.4-10.773 24.094-24.062 24.094h-144.945c-13.129 0-24.062-10.787-24.062-24.094zM120.668 647.529c0-13.4 10.757-24.094 24.027-24.094h217.415c13.291 0 24.027 10.787 24.027 24.094 0 13.4-10.757 24.094-24.027 24.094h-217.415c-13.291 0-24.027-10.787-24.027-24.094zM422.337 527.059c0-13.4 10.755-24.094 24.022-24.094h193.291c13.026 0 24.022 10.787 24.022 24.094 0 13.4-10.755 24.094-24.022 24.094h-193.291c-13.026 0-24.022-10.787-24.022-24.094zM422.337 768c0-13.4 10.755-24.094 24.022-24.094h193.291c13.026 0 24.022 10.787 24.022 24.094 0 13.4-10.755 24.094-24.022 24.094h-193.291c-13.026 0-24.022-10.787-24.022-24.094zM120.668 527.059c0-13.4 10.773-24.094 24.062-24.094h144.945c13.129 0 24.062 10.787 24.062 24.094 0 13.4-10.773 24.094-24.062 24.094h-144.945c-13.129 0-24.062-10.787-24.062-24.094zM120.668 206.058c0 70.829 57.341 128.248 127.997 128.248h287.011c70.691 0 127.997-57.509 127.997-128.248v-8.54c0-70.829-57.341-128.248-127.997-128.248h-287.011c-70.691 0-127.997 57.509-127.997 128.248v8.54zM248.465 253.965v-112.412h23.839v36.812h21.777c24.829 0 38.769 16.224 38.769 37.635 0 21.165-13.775 37.965-38.522 37.965h-45.863zM272.221 235.271h17.157c11.961 0 19.22-6.918 19.22-19.271 0-14.576-8.991-19.188-23.756-19.188h-12.621v38.459zM360.094 253.965v-112.412h42.151c36.46 0 50.482 23.553 50.482 56.576 0 33.106-14.105 55.835-50.482 55.835h-42.151zM384.016 234.694h14.765c22.767 0 29.448-16.059 29.448-37.059 0-27.506-11.053-36.812-29.448-36.812h-14.765v73.871zM506.286 141.553v43.976h44.626v19.024h-44.626v29.976h48.915v19.435h-72.837v-112.412h23.921zM120.668 821.564c0 23.645 19.072 42.813 42.622 42.813h11.29c23.54 0 42.622-19.089 42.622-42.813v-34.845c0-23.645-19.072-42.813-42.622-42.813h-11.29c-23.54 0-42.622 19.089-42.622 42.813v34.845zM156.868 816.075v-23.868c0-6.632 5.402-12.16 12.067-12.16 6.469 0 12.067 5.444 12.067 12.16v23.868c0 6.632-5.402 12.16-12.067 12.16-6.469 0-12.067-5.444-12.067-12.16z" />
<glyph unicode="&#xe928;" glyph-name="check" horiz-adv-x="1229" d="M417.354-24.201l-399.36 443.223c-23.993 26.628-23.993 69.802 0 96.433l86.887 96.433c23.993 26.631 62.897 26.631 86.89 0l269.028-298.574 576.228 639.514c23.993 26.628 62.897 26.628 86.89 0l86.887-96.433c23.993-26.628 23.993-69.802 0-96.433l-706.56-784.166c-23.995-26.628-62.897-26.628-86.89 0.003z" />
<glyph unicode="&#xe929;" glyph-name="pencil" d="M596.164 768.209l219.328-222.070c9.24-9.356 9.24-24.62 0-33.975l-531.057-537.696-225.651-25.358c-30.152-3.447-55.683 22.404-52.279 52.933l25.045 228.472 531.057 537.696c9.24 9.356 24.316 9.356 33.556 0zM990.080 824.588l-118.661 120.145c-36.96 37.422-97.021 37.422-134.224 0l-86.078-87.154c-9.24-9.356-9.24-24.62 0-33.975l219.328-222.070c9.24-9.356 24.316-9.356 33.556 0l86.078 87.154c36.96 37.668 36.96 98.479 0 135.901z" />
<glyph unicode="&#xe92a;" glyph-name="calendar-check" d="M948.114 652.8h-872.229c-13.633 0-24.686 10.746-24.686 24v72c0 53.020 44.208 96 98.743 96h98.743v104c0 13.254 11.053 24 24.686 24h82.286c13.633 0 24.686-10.746 24.686-24v-104h263.314v104c0 13.254 11.053 24 24.686 24h82.286c13.633 0 24.686-10.746 24.686-24v-104h98.743c54.535 0 98.743-42.98 98.743-96v-72c0-13.254-11.053-24-24.686-24zM75.886 588.8h872.229c13.633 0 24.686-10.746 24.686-24v-520c0-53.020-44.208-96-98.743-96h-724.114c-54.535 0-98.743 42.98-98.743 96v520c0 13.254 11.053 24 24.686 24zM761.523 396.906l-57.948 56.796c-9.601 9.41-25.231 9.472-34.91 0.136l-218.133-210.368-94.587 92.704c-9.601 9.41-25.233 9.472-34.912 0.136l-58.417-56.34c-9.679-9.334-9.743-24.53-0.14-33.94l169.922-166.538c9.601-9.41 25.231-9.472 34.91-0.136l294.075 283.61c9.679 9.334 9.743 24.53 0.14 33.94z" />
<glyph unicode="&#xe92b;" glyph-name="facebook-square" horiz-adv-x="1088" d="M1088 863.104v-804.608c0-60.544-52.224-109.696-116.544-109.696h-207.168v405.056h147.2l21.12 154.496h-168.32v98.752c0 44.8 13.12 75.2 81.344 75.2h86.912v138.048c-37.001 3.915-79.935 6.148-123.391 6.148-1.17 0-2.339-0.002-3.509-0.005h0.18c-125.312 0-211.328-72-211.328-204.352v-114.048h-147.648v-154.496h147.904v-404.8h-478.208c-64.32 0-116.544 49.152-116.544 109.696v804.608c0 60.544 52.224 109.696 116.544 109.696h854.912c64.32 0 116.544-49.152 116.544-109.696z" />
<glyph unicode="&#xe92c;" glyph-name="clock" d="M512 972.8c-282.839 0-512-229.162-512-512s229.162-512 512-512c282.839 0 512 229.162 512 512s-229.162 512-512 512zM629.884 250.013l-182.090 132.336c-6.4 4.748-10.116 12.18-10.116 20.025v347.458c0 13.626 11.149 24.775 24.775 24.775h99.097c13.626 0 24.775-11.149 24.775-24.775v-284.284l131.097-95.381c11.149-8.052 13.419-23.535 5.368-34.684l-58.219-80.103c-8.052-10.942-23.535-13.419-34.684-5.368z" />
<glyph unicode="&#xe92d;" glyph-name="question-mark" d="M512-51.2c-282.77 0-512 229.23-512 512s229.23 512 512 512c282.77 0 512-229.23 512-512s-229.23-512-512-512zM512 30.721c237.527 0 430.079 192.553 430.079 430.079s-192.553 430.079-430.079 430.079c-237.527 0-430.079-192.553-430.079-430.079s192.553-430.079 430.079-430.079zM512.384 645.12c-65.033 0-107.156-26.162-140.226-72.821-5.999-8.464-4.15-20.069 4.219-26.3l35.147-26.167c8.451-6.292 20.477-4.82 27.093 3.319 20.409 25.105 35.548 39.559 67.427 39.559 25.065 0 56.068-15.839 56.068-39.705 0-18.042-15.168-27.307-39.917-40.931-28.861-15.888-67.054-35.661-67.054-85.124v-7.83c0-10.604 8.755-19.2 19.554-19.2h59.047c10.799 0 19.554 8.596 19.554 19.2v4.619c0 34.288 102.063 35.716 102.063 128.501 0.001 69.875-73.818 122.88-142.976 122.88zM504.219 346.353c-31.121 0-56.44-24.86-56.44-55.416s25.319-55.416 56.44-55.416c31.121 0 56.44 24.86 56.44 55.416s-25.319 55.416-56.44 55.416z" />
<glyph unicode="&#xe92e;" glyph-name="location-shadow" d="M711.762 654.909c13.962 28.899 22.554 62.080 22.554 96.331 0 122.019-99.881 221.56-222.316 221.56s-222.316-99.542-222.316-221.56c0-34.251 8.592-67.431 22.554-96.331 0 0 4.296-9.633 5.37-10.703l194.392-358.564 192.244 353.212c2.148 4.281 7.518 16.055 7.518 16.055zM512 861.485c61.217 0 110.621-49.236 110.621-110.245s-49.404-111.315-110.621-111.315c-61.217 0-110.621 49.236-110.621 110.245s49.404 111.315 110.621 111.315zM693.895-24.253c0-14.883-75.405-26.947-168.421-26.947s-168.421 12.065-168.421 26.947c0 14.883 75.405 26.947 168.421 26.947s168.421-12.065 168.421-26.947z" />
<glyph unicode="&#xe92f;" glyph-name="map-with-pin" d="M985.548 576.238l-105.305 63.51c-4.95-11.972-10.518-24.192-16.427-36.565l91.6-55.189v-544.064l-191.832 115.699v310.903c-14.973-22.614-28.646-42.32-39.814-58.097v-252.806l-191.832-115.699v471.459c-13.364 21.377-26.883 43.898-39.752 66.944v-538.403l-191.832 115.699v544.033l187.13-112.853c-12.251 22.305-23.634 44.764-33.658 66.759l-163.124 98.313c-0.185 0.123-0.31 0.248-0.495 0.371-6.28 3.496-13.952 3.403-20.108-0.31l-231.584-139.705c-6.001-3.589-9.621-10.054-9.621-17.046v-590.498c0-7.177 3.867-13.766 10.085-17.324 3.094-1.733 6.403-2.568 9.775-2.568 3.557 0 7.115 0.928 10.27 2.846l221.313 133.518 221.375-133.518c3.186-1.887 6.744-2.816 10.302-2.816 3.372 0 6.713 0.835 9.775 2.568 0.123 0.093 0.31 0.248 0.433 0.34l0.062-0.062 221.313 133.518 221.375-133.518c3.156-1.918 6.713-2.846 10.27-2.846 3.31 0 6.713 0.835 9.775 2.568 6.218 3.527 10.085 10.115 10.085 17.324v590.467c0.031 6.991-3.65 13.457-9.559 17.046zM260.48 119.628l-191.832-115.699v544.064l191.832 115.669v-544.033zM846.080 680.85c12.976 26.541 20.96 57.014 20.96 88.47 0 112.062-92.822 203.481-206.605 203.481s-206.605-91.419-206.605-203.481c0-31.456 7.985-61.929 20.96-88.47 0 0 3.993-8.847 4.99-9.83l180.655-329.305 178.659 324.39c1.996 3.932 6.986 14.745 6.986 14.745zM660.434 870.569c56.892 0 102.803-45.217 102.803-101.249s-45.913-102.231-102.803-102.231c-56.892 0-102.803 45.217-102.803 101.249s45.913 102.231 102.803 102.231z" />
<glyph unicode="&#xe930;" glyph-name="webcam" d="M512 972.8c-235.808 0-426.944-191.136-426.944-426.944s191.136-427.008 426.944-427.008c235.84 0 426.944 191.2 426.944 427.008s-191.136 426.944-426.944 426.944zM512 292.672c-139.808 0-253.12 113.376-253.12 253.184s113.312 253.12 253.12 253.12c139.84 0 253.216-113.312 253.216-253.12s-113.408-253.184-253.216-253.184zM800.064-12.832v74.496c0 11.328-42.176 35.936-102.688 56.512-56.8-24.64-119.488-38.368-185.376-38.368s-128.544 13.76-185.376 38.368c-60.512-20.576-102.656-45.184-102.656-56.512v-74.496c0-21.184 17.184-38.368 38.368-38.368h499.36c21.184 0 38.368 17.184 38.368 38.368zM589.056 545.792c-42.496 0-77.056 34.56-77.056 77.12 0 35.424 24.224 65.056 56.864 74.048-17.76 6.688-36.8 10.816-56.896 10.816-89.312 0-161.984-72.64-161.984-162.016 0-89.312 72.672-162.016 161.984-162.016 89.344 0 162.016 72.672 162.016 162.016 0 20.128-4.128 39.2-10.88 56.928-8.928-32.704-38.592-56.896-74.048-56.896z" />
<glyph unicode="&#xe931;" glyph-name="direction" d="M755.881 632.918v-92.118h-487.763v92.118c0 42.764-51.702 64.18-81.942 33.942l-172.117-172.118c-18.746-18.746-18.746-49.136 0-67.882l172.117-172.118c30.238-30.238 81.942-8.822 81.942 33.942v92.116h487.763v-92.118c0-42.764 51.702-64.18 81.942-33.942l172.117 172.118c18.746 18.746 18.746 49.136 0 67.882l-172.117 172.118c-30.238 30.24-81.942 8.824-81.942-33.94z" />
<glyph unicode="&#xe932;" glyph-name="location-arrow" d="M887.365 963.742l-831.73-383.778c-93.040-42.942-62.416-183.164 40.23-183.164h352.134v-351.986c0-103.454 140.322-133.052 183.164-40.23l383.596 831.766c37.81 81.922-47.504 164.266-127.394 127.392z" />
<glyph unicode="&#xe933;" glyph-name="google" d="M1024 448.832c0-292.16-203.328-500.032-503.616-500.032-287.872 0-520.384 228.736-520.384 512s232.512 512 520.384 512c140.16 0 258.112-50.56 348.992-134.016l-141.696-133.952c-185.28 175.872-529.792 43.776-529.792-244.032 0-178.56 144.96-323.328 322.56-323.328 206.016 0 283.2 145.344 295.424 220.736h-295.488v176.064h495.424c4.864-26.24 8.192-51.392 8.192-85.44z" />
<glyph unicode="&#xe934;" glyph-name="money-bill" d="M1024 678.4v-435.201c0-21.208-17.193-38.4-38.4-38.4h-947.201c-21.208 0-38.4 17.193-38.4 38.4v435.201c0 21.208 17.193 38.4 38.4 38.4h947.201c21.208 0 38.4-17.193 38.4-38.4zM153.599 256c0 56.554-45.846 102.4-102.4 102.4v-102.4h102.4zM153.599 665.6h-102.4v-102.4c56.554 0 102.4 45.846 102.4 102.4zM640 460.8c0 84.834-57.307 153.6-128 153.6s-128-68.766-128-153.6c0-84.818 57.302-153.6 128-153.6 70.667 0 128 68.75 128 153.6zM972.8 358.4c-56.554 0-102.4-45.846-102.4-102.4h102.4v102.4zM972.8 665.6h-102.4c0-56.554 45.846-102.4 102.4-102.4v102.4zM444.101 391.157c0 11.963 6.267 18.515 18.517 18.515h24.21v63.805c0 8.262 0.854 16.806 0.854 16.806h-0.57c0 0-2.846-4.272-4.557-5.982-7.121-6.837-16.806-7.121-25.066 1.709l-8.829 9.97c-8.547 8.546-7.974 17.946 0.854 26.206l34.753 31.903c7.119 6.553 13.386 9.115 23.073 9.115h19.368c12.25 0 18.798-6.266 18.798-18.515v-135.014h24.782c12.248 0 18.515-6.55 18.515-18.515v-14.241c0-11.963-6.267-18.515-18.515-18.515h-107.67c-12.25 0-18.517 6.553-18.517 18.515v14.24z" />
<glyph unicode="&#xe935;" glyph-name="heart-o" d="M736.168 908.734c177.77 0 287.832-109.012 287.832-285.454 0-65.475-25.302-129.328-67.062-189.657-13.801-19.938-28.522-38.147-43.448-54.54-9.034-9.922-16.495-17.408-21.711-22.373l-329.794-323.382c-27.802-27.283-72.165-27.283-99.979 0.011l-329.187 323.397c-16.771 14.909-43.405 44.1-67.801 79.836-40.534 59.377-65.017 122.282-65.017 186.709 0 176.442 110.062 285.454 287.832 285.454 79.043 0 155.115-42.030 224.167-105.109 69.052 63.080 145.124 105.109 224.167 105.109zM736.168 845.703c-66.287 0-137.94-44.080-201.893-107.969l-22.274-22.252-22.274 22.252c-63.953 63.889-135.606 107.969-201.893 107.969-143.093 0-224.801-80.928-224.801-222.424 0-86.695 58.13-171.85 112.809-220.508l330.322-324.457c3.288-3.226 8.386-3.226 11.683 0.008l329.408 322.996c5.47 5.239 11.717 11.507 19.63 20.198 13.139 14.43 26.123 30.491 38.227 47.978 35.105 50.715 55.857 103.086 55.857 153.783 0 141.495-81.708 222.424-224.801 222.424z" />
<glyph unicode="&#xe936;" glyph-name="user-circle" d="M0 460.8c0 282.771 229.229 512 512 512s512-229.229 512-512c0-282.771-229.229-512-512-512s-512 229.229-512 512zM149.585 200.943c80.933-112.677 213.095-186.079 362.415-186.079s281.482 73.402 362.415 186.079c-6.485 55.721-46.796 102.499-102.272 116.369l-66.837 16.708c-53.818-46.206-121.623-71.414-193.307-71.414s-139.489 25.208-193.309 71.414l-66.837-16.708c-55.474-13.869-95.785-60.647-102.27-116.369zM280.774 559.897c0-127.703 103.523-231.226 231.226-231.226s231.226 103.523 231.226 231.226c0 127.703-103.523 231.226-231.226 231.226s-231.226-103.523-231.226-231.226z" />
<glyph unicode="&#xe937;" glyph-name="filter" d="M974.281 972.793h-926.161c-25.549 0-44.711-19.162-44.711-51.099 0-12.775 6.387-25.549 12.775-31.937l370.465-370.465v-408.789c0-12.775 6.387-31.937 19.162-38.324l159.683-114.972c19.162-12.775 51.099-12.775 63.873 12.775 6.387 6.387 6.387 19.162 6.387 25.549v523.76l370.465 370.465c19.162 19.162 19.162 51.099 0 70.261-6.387 6.387-19.162 12.775-31.937 12.775z" />
<glyph unicode="&#xe938;" glyph-name="calendar" horiz-adv-x="887" d="M873.813 662.391v67.243c0 49.425-41.301 89.566-92.16 89.566h-92.16v97.075c-0.23 12.416-10.348 22.392-22.797 22.392-0.073 0-0.146 0-0.22-0.001h-76.789c-0.082 0.001-0.179 0.002-0.277 0.002-12.449 0-22.568-9.977-22.797-22.372v-97.096h-245.76v97.075c-0.229 12.416-10.348 22.393-22.797 22.393-0.097 0-0.194-0.001-0.291-0.002h-76.785c-0.062 0.001-0.135 0.001-0.208 0.001-12.449 0-22.568-9.977-22.797-22.371v-97.096h-92.16c-50.859 0-92.16-40.141-92.16-89.634v-67.174c0-12.288 10.377-22.391 23.074-22.391h814.080c0.062-0.001 0.135-0.001 0.208-0.001 12.449 0 22.568 9.977 22.797 22.371v0.021zM36.659 580.267h814.080c12.698 0 23.074-10.103 23.074-22.391v-485.376c0-49.425-41.301-89.566-92.16-89.566h-675.84c-50.859 0-92.16 40.141-92.16 89.634v485.308c0 12.288 10.377 22.391 23.074 22.391z" />
<glyph unicode="&#xe939;" glyph-name="share" horiz-adv-x="1243" d="M51.2 612.059l402.286 347.429c9.554 8.281 22.108 13.326 35.84 13.326 30.297 0 54.857-24.56 54.857-54.857 0-0.005 0-0.010 0-0.015v0.001-183.003c367.177-4.242 658.286-77.824 658.286-425.691 0-140.434-90.478-279.625-190.464-352.329-31.232-22.674-75.703 5.778-64.219 42.569 103.643 331.483-49.152 419.474-403.602 424.521v-200.923c0-47.323-55.589-71.899-90.697-41.545l-402.286 347.429c-11.685 10.117-19.034 24.973-19.034 41.545s7.349 31.428 18.965 41.487l0.069 0.058z" />
<glyph unicode="&#xe93a;" glyph-name="phone" horiz-adv-x="1088" d="M1039.936 923.52l-208 48c-3.245 0.782-6.971 1.231-10.802 1.231-19.669 0-36.574-11.83-43.99-28.763l-0.12-0.309-96-224c-2.446-5.568-3.87-12.059-3.87-18.882 0-14.919 6.807-28.249 17.484-37.053l0.082-0.066 121.216-99.2c-74.913-156.386-198.127-279.62-350.045-352.632l-4.451-1.928-99.2 121.28c-8.869 10.759-22.199 17.566-37.118 17.566-6.823 0-13.314-1.424-19.191-3.99l0.309 0.12-224-96c-17.273-7.523-29.129-24.444-29.129-44.135 0-3.822 0.447-7.539 1.291-11.103l-0.065 0.326 48-208c5.090-21.463 24.092-37.184 46.766-37.184 0.007 0 0.013 0 0.020 0h-0.001c512.192 0 928 415.040 928 928-0.022 22.655-15.736 41.634-36.858 46.655l-0.326 0.065z" />
<glyph unicode="&#xe93b;" glyph-name="download" d="M904 44.8c-0.073 22.062-17.938 39.928-39.993 40h-0.007c-22.062-0.073-39.928-17.938-40-39.993v-0.007c0-22.016 17.984-40 40-40 22.062 0.073 39.928 17.938 40 39.993v0.007zM776 44.8c-0.073 22.062-17.938 39.928-39.993 40h-0.007c-22.062-0.073-39.928-17.938-40-39.993v-0.007c0-22.016 17.984-40 40-40 22.062 0.073 39.928 17.938 40 39.993v0.007zM1024 220.8v-224c0-26.624-21.376-48-48-48h-928c-0.038 0-0.083 0-0.128 0-26.439 0-47.872 21.433-47.872 47.872 0 0.045 0 0.090 0 0.135v-0.007 224c0 26.624 21.376 48 48 48h293.376l98.048-97.984c40.192-40.192 104.96-40.192 145.152 0l98.048 97.984h293.376c26.624 0 48-21.376 48-48zM432.256 972.8h160.128c26.624 0 48-21.376 48-48v-336h175.616c35.648 0 53.44-43.008 28.224-68.224l-304.448-304.384c-7.009-6.961-16.666-11.263-27.328-11.263s-20.319 4.302-27.33 11.266l0.002-0.002-304.896 304.384c-7.256 7.232-11.746 17.236-11.746 28.288 0 22.046 17.863 39.919 39.904 39.936h175.81v336c0 26.624 21.44 48 48 48z" />
<glyph unicode="&#xe93c;" glyph-name="user" d="M878.592 305.152l-142.629 35.694c-149.87-107.813-331.483-83.749-447.927 0l-142.629-35.694c-84.181-21.578-145.408-96.769-145.408-186.261 0-0.012 0-0.024 0-0.036v0.002-74.094c0-52.955 43.008-95.963 95.963-95.963h832c53.029 0 96.037 43.008 96.037 95.963v74.094c0 88.137-59.977 164.937-145.408 186.295zM512 972.8c176.731 0 320-143.269 320-320s-143.269-320-320-320v0c-176.731 0-320 143.269-320 320s143.269 320 320 320v0z" />
<glyph unicode="&#xe93d;" glyph-name="envelope" horiz-adv-x="1339" d="M656.935 303.262c57.108-1.024 139.343 71.838 180.697 101.927 326.656 237.095 351.468 257.733 426.85 316.81 13.817 10.884 22.607 27.615 22.607 46.399 0 0.026 0 0.052 0 0.079v-0.004 46.789c0 65.255-52.899 118.154-118.154 118.154v0h-1024c-65.255 0-118.154-52.899-118.154-118.154v0-46.789c0-18.196 8.35-35.21 22.686-46.474 75.303-58.841 100.116-79.793 426.772-316.81 41.354-30.011 123.589-102.873 180.697-101.927zM1263.222 621.332c2.476 1.93 5.632 3.094 9.059 3.094 8.131 0 14.731-6.553 14.808-14.666v-503.421c0-65.255-52.899-118.154-118.154-118.154v0h-1024c-65.255 0-118.154 52.899-118.154 118.154v0 503.178c0 12.288 14.021 19.141 23.867 11.5 55.138-42.772 128.236-97.201 379.353-279.631 51.988-37.809 139.579-117.602 226.934-117.13 87.906-0.788 177.231 80.738 227.17 117.13 251.116 182.43 323.978 237.095 379.116 279.946z" />
<glyph unicode="&#xe93e;" glyph-name="linkedin-square" horiz-adv-x="1081" d="M748.43 105.244v231.14c0 55.068-1.138 125.952-78.791 125.952-78.962 0-91.022-59.961-91.022-121.97v-235.122h-151.609v475.136h145.408v-64.91h2.048c20.309 37.319 69.86 76.686 143.588 76.686 153.429 0 181.988-98.418 181.988-226.418v-260.494zM167.765 730.795c0 47.104 39.31 85.561 88.007 85.561 48.469 0 88.007-38.457 88.007-85.561 0-47.332-39.253-85.561-88.007-85.561-48.697 0-88.007 38.457-88.007 85.561zM179.883 105.244v475.136h152.007v-475.136zM973.028 958.578h-877.909c-40.22 0-72.932-32.199-72.932-71.794v-851.968c0-39.595 32.711-71.794 72.932-71.794h877.909c40.22 0 73.159 32.199 73.159 71.794v851.968c0 39.595-32.939 71.794-73.159 71.794z" />
<glyph unicode="&#xe93f;" glyph-name="house" d="M1000.975 402.404h-94.276v-334.966c0-24.844-10.939-55.827-56.385-55.827h-225.541v334.966h-225.541v-334.966h-225.541c-45.446 0-56.385 30.985-56.385 55.827v334.966h-94.276c-33.718 0-26.501 18.088-3.383 41.759l452.436 448.407c10.995 11.278 25.429 16.86 39.921 17.419 14.491-0.559 28.926-6.086 39.921-17.419l452.38-448.351c23.174-23.727 30.392-41.815-3.326-41.815z" />
<glyph unicode="&#xe940;" glyph-name="chevron-up-thin" d="M1010.822 229.58v0c19.701 23.027 17.004 57.664-6.022 77.364l-457.128 391.099c-20.535 17.569-50.806 17.569-71.342 0l-457.128-391.099c-23.027-19.701-25.723-54.338-6.022-77.364v0c19.701-23.027 54.338-25.723 77.364-6.022l421.457 360.58 421.457-360.58c23.027-19.701 57.664-17.004 77.364 6.022z" />
<glyph unicode="&#xe941;" glyph-name="chevron-down-thin" d="M1010.822 692.020v0c19.701-23.027 17.004-57.664-6.022-77.364l-457.128-391.099c-20.535-17.569-50.806-17.569-71.342 0l-457.128 391.099c-23.027 19.701-25.723 54.338-6.022 77.364v0c19.701 23.027 54.338 25.723 77.364 6.022l421.457-360.58 421.457 360.58c23.027 19.701 57.664 17.004 77.364-6.022z" />
<glyph unicode="&#xe942;" glyph-name="cross-bold" horiz-adv-x="1133" d="M953.148-32.398l159.003 143.687c27.713 25.055 27.713 65.318 0 90.373l-286.72 259.137 286.72 259.137c27.713 25.055 27.713 65.318 0 90.373l-159.003 143.687c-27.713 25.055-72.246 25.055-99.982 0l-286.698-259.116-286.72 259.116c-27.713 25.055-72.246 25.055-99.96 0l-159.003-143.687c-27.713-25.055-27.713-65.318 0-90.373l286.72-259.137-286.72-259.137c-27.713-25.055-27.713-65.318 0-90.373l159.003-143.687c27.713-25.055 72.246-25.055 99.982 0l286.698 259.116 286.72-259.116c27.408-24.794 72.246-24.794 99.96 0z" />
<glyph unicode="&#xe943;" glyph-name="cog" horiz-adv-x="951" d="M474.807 307.639c-88.371 0.146-159.958 71.797-160 160.179v0.004c0.042 88.386 71.629 160.037 159.986 160.183h0.014c88.371-0.146 159.958-71.797 160-160.179v-0.004c-0.042-88.386-71.629-160.037-159.986-160.183h-0.014zM852.407 538.039l85.211 49.225c7.242 4.239 12.029 11.979 12.029 20.839 0 2.562-0.4 5.030-1.142 7.346l0.047-0.17c-23.323 73.578-60.846 136.875-109.677 189.539l0.292-0.318c-4.403 4.753-10.677 7.718-17.644 7.718-4.424 0-8.569-1.196-12.128-3.281l0.113 0.061-85.175-49.189c-34.382 29.611-74.735 53.466-118.86 69.446l-2.667 0.844v98.377c0 0.002 0 0.004 0 0.006 0 11.41-7.941 20.966-18.599 23.441l-0.162 0.032c-32.821 7.679-70.507 12.081-109.221 12.081s-76.4-4.402-112.585-12.733l3.364 0.652c-10.817-2.492-18.761-12.040-18.761-23.443 0-0.013 0-0.025 0-0.038v0.002-98.377c-46.778-16.829-87.119-40.684-121.991-70.712l0.501 0.422-85.285 49.152c-3.441 2.016-7.577 3.206-11.991 3.206-6.96 0-13.23-2.96-17.618-7.689l-0.014-0.015c-48.526-52.348-86.038-115.645-108.383-185.712l-0.966-3.508c-0.692-2.141-1.091-4.605-1.091-7.162 0-8.843 4.769-16.571 11.876-20.754l0.113-0.061 85.211-49.189c-4.083-21.112-6.419-45.392-6.419-70.217s2.336-49.105 6.8-72.631l-0.381 2.414-85.211-49.262c-7.219-4.244-11.989-11.972-11.989-20.815 0-2.557 0.399-5.021 1.138-7.332l-0.047 0.17c23.312-73.576 60.824-136.873 109.641-189.54l-0.293 0.32c4.405-4.775 10.694-7.756 17.679-7.756 4.425 0 8.57 1.196 12.13 3.282l-0.113-0.061 85.138 49.262c35.84-30.72 77.019-54.528 121.49-70.29v-98.377c0-11.264 7.826-20.992 18.798-23.479 73.472-16.494 148.553-15.689 218.441 0 10.817 2.492 18.761 12.040 18.761 23.443 0 0.013 0 0.025 0 0.038v-0.002 98.377c46.792 16.825 87.145 40.68 122.028 70.712l-0.502-0.422 85.175-49.225c3.436-2.008 7.564-3.193 11.969-3.193 6.972 0 13.25 2.969 17.639 7.712l0.014 0.016c48.553 52.343 86.089 115.64 108.455 185.712l0.967 3.509c0.688 2.136 1.085 4.594 1.085 7.144 0 8.855-4.783 16.593-11.906 20.772l-0.113 0.061-85.211 49.225c8.558 46.446 8.558 94.025 0 140.434z" />
<glyph unicode="&#xe944;" glyph-name="check-thin" horiz-adv-x="1317" d="M1198.080 951.589l-774.071-773.632-305.152 304.786-103.497-103.424 408.576-408.21 877.714 877.056z" />
</font>
</defs>
</svg>
